Мой маленький пони: Девочки из Эквестрии - Радужный рок / My Little Pony: Equestria Girls - Rainbow Rocks (Джэйсон Тиссен / Jayson Thiessen, Иши Руделл / Ishi Rudell) [2014, комедия, фэнтези, WEB-DLRip] Dub (GALA Voices) + VO (Трина Дубовицкая)

Ответить на тему
 
Автор Сообщение

user ®

Стаж: 13 лет

Сообщений: 15041

Пост Пост: #1 от 01-Ноя-2014 15:45

[Цитировать]

Мой маленький пони: Девочки из Эквестрии - Радужный рок / My Little Pony: Equestria Girls - Rainbow Rocks Страна: США, Канада
Жанр: Приключения, комедия, семейный, фэнтези
Продолжительность: 01:13:19
Год выпуска: 2014
Перевод 1: Любительский дублированный (GALA Voices) (Сэмпл)
Перевод 2: Одноголосый закадровый (Трина Дубовицкая)
Русские субтитры: нет
Режиссёр: Джэйсон Тиссен / Jayson Thiessen, Иши Руделл / Ishi Rudell
Роли озвучивали: Тара Стронг, Эшли Болл, Андреа Либман, Табита Сен-Жермен, Кэти Уэслак, Кэтлин Барр и другие.
Описание: В школе Кантерлот Хай состоится музыкальное представление, в котором решают поучаствовать Рэйнбоу Дэш, Эпплджек, Пинки Пай, Рэрити и Флаттершай со своей новой группой - "The Rainbooms". Но когда на сцене появляется новая группа девочек с броским названием "The Dazzlings", всё очень быстро превращается из дружеского состязания в настоящую Битву Групп. В то время как между противниками нарастает напряжение, исправившаяся Сансет Шиммер узнаёт, что девочки из группы "The Dazzlings" вовсе не так просты, как могут показаться, и преследуют цели куда более зловещие, чем завоевание титула Лучшей Группы Кантерлот Хай. "The Rainbooms" обращаются за помощью к Принцессе Твайлайт, чтобы та вернулась в их мир и помогла сотворить музыкальное контр-заклинание, способное помочь им в битве, которая определит дальнейшую судьбу всей школы.
Доп. информация: В раздаче представлен любительский дубляж команды GALA Voices и оперативная любительская озвучка Трины Дубовицкой, за что всем им огромное спасибо. Также присутствует оригинальная аудиодорожка, а подходящие русские и английские субтитры можно найти [url=http://***/forum/viewtopic.php?t=4852596]в соседней раздаче[/url].
[url=http://***/forum/tracker.php?nm=Equestria+Girls+Rainbow+Rocks]Предыдущие и альтернативные раздачи[/url]
Рейтинг:
Качество: WEB-DLRip [url=http://***/forum/viewtopic.php?t=4849465](Исходник)[/url]
Формат: AVI
Видео: XviD, 720x400 (16:9), 23.976 fps, ~1864 kbps
Аудио 1 Rus: AC3 48 kHz, 2 ch, 192 kbps (GALA Voices)
Аудио 2 Rus: AC3 48 kHz, 6 ch, 384 kbps (Трина Дубовицкая)
Аудио 3 Eng: AC3 48 kHz, 6 ch, 384 kbps (Оригинальный звук)
Скриншоты Подробные технические данные
ОбщееПолное имя : C:\Video\mlp.eg.rainbow.rocks.2014.web-dlrip.aviФормат : AVIФормат/Информация : Audio Video InterleaveРазмер файла : 1,46 ГбайтПродолжительность : 1 ч. 13 м.Общий поток : 2843 Кбит/секПрограмма кодирования : VirtualDubMod 1.5.10.2 (build 2540/release)Библиотека кодирования : VirtualDubMod build 2540/release
ВидеоИдентификатор : 0Формат : MPEG-4 VisualПрофиль формата : Advanced Simple@L5Параметр BVOP формата : 1Параметр QPel формата : НетПараметр GMC формата : Без точки переходаПараметр матрицы формата : ВыборочнаяИдентификатор кодека : XVIDИдентификатор кодека/Подсказка : XviDПродолжительность : 1 ч. 13 м.Битрейт : 1864 Кбит/секШирина : 720 пикселейВысота : 400 пикселейСоотношение сторон : 16:9Частота кадров : 23,976 кадра/секЦветовое пространство : YUVСубдискретизация насыщенности : 4:2:0Битовая глубина : 8 битТип развёртки : ПрогрессивнаяМетод сжатия : С потерямиБит/(Пиксели*Кадры) : 0.270Размер потока : 978 Мбайт (66%)Библиотека кодирования : XviD 64
Аудио #1Идентификатор : 1Формат : AC-3Формат/Информация : Audio Coding 3Расширение режима : CM (complete main)Параметр Endianness формата : BigИдентификатор кодека : 2000Продолжительность : 1 ч. 13 м.Вид битрейта : ПостоянныйБитрейт : 192 Кбит/секКаналы : 2 каналаРасположение каналов : Front: L RЧастота : 48,0 КГцБитовая глубина : 16 битМетод сжатия : С потерямиРазмер потока : 101 Мбайт (7%)Выравнивание : Разделение по промежуткамПродолжительность промежутка : 42 мс. (1,00 видеокадр)Время предзагрузки промежутка : 500 мс.
Аудио #2Идентификатор : 2Формат : AC-3Формат/Информация : Audio Coding 3Расширение режима : CM (complete main)Параметр Endianness формата : BigИдентификатор кодека : 2000Продолжительность : 1 ч. 13 м.Вид битрейта : ПостоянныйБитрейт : 384 Кбит/секКаналы : 6 каналовРасположение каналов : Front: L C R, Side: L R, LFEЧастота : 48,0 КГцБитовая глубина : 16 битМетод сжатия : С потерямиРазмер потока : 201 Мбайт (14%)Выравнивание : Разделение по промежуткамПродолжительность промежутка : 42 мс. (1,00 видеокадр)Время предзагрузки промежутка : 500 мс.
Аудио #3Идентификатор : 3Формат : AC-3Формат/Информация : Audio Coding 3Расширение режима : CM (complete main)Параметр Endianness формата : BigИдентификатор кодека : 2000Продолжительность : 1 ч. 13 м.Вид битрейта : ПостоянныйБитрейт : 384 Кбит/секКаналы : 6 каналовРасположение каналов : Front: L C R, Side: L R, LFEЧастота : 48,0 КГцБитовая глубина : 16 битМетод сжатия : С потерямиРазмер потока : 201 Мбайт (14%)Выравнивание : Разделение по промежуткамПродолжительность промежутка : 42 мс. (1,00 видеокадр)Время предзагрузки промежутка : 500 мс.
Скачать

Скачать торрент! Мой маленький пони: Девочки из Эквестрии - Радужный рок / My Little Pony: Equestria Girls - Rainbow Rocks (Джэйсон Тиссен / Jayson Thiessen, Иши Руделл / Ishi Rudell) [2014, комедия, фэнтези, WEB-DLRip] Dub (GALA Voices) + VO (Трина Дубовицкая)

Как скачивать? · Что такое торрент? · Рейтинг и ограничения

Сайт не распространяет и не хранит электронные версии произведений, а лишь предоставляет доступ к создаваемому пользователями каталогу ссылок на торрент-файлы, которые содержат только списки хеш-сумм

[Профиль] [ЛС]
Показать сообщения:    
Ответить на тему

Текущее время: Сегодня 23:51

Часовой пояс: GMT + 4



Вы не можете начинать темы
Вы не можете отвечать на сообщения
Вы не можете редактировать свои сообщения
Вы не можете удалять свои сообщения
Вы не можете голосовать в опросах
Вы не можете прикреплять файлы к сообщениям
Вы не можете скачивать файлы