Очень странная девушка / Мисс Бабуля / Miss Granny / Su-sang-han geu-nyeo (Хван Дон Хек / Hwang Dong-Hyuk) [2014, Южная Корея, фэнтези, комедия, музыка, HDRip] DVO [GREEN TEA]

Ответить на тему
 
Автор Сообщение

user ®

Стаж: 13 лет

Сообщений: 15071

Пост Пост: #1 от 01-Ноя-2014 06:10

[Цитировать]

Очень странная девушка / Мисс Бабуля / Miss Granny / Su-sang-han geu-nyeo- -Страна: Южная Корея
Жанр: фэнтези, комедия, музыка
Год выпуска: 2014
Продолжительность: 02:04:54-Перевод: Любительский (двухголосый закадровый) [GREEN TEA]-Cубтитры: нет
Оригинальная аудиодорожка: нет
Режиссер: Хван Дон Хек / Hwang Dong-Hyuk
В ролях: Шим Ын Кён, На Мун Хи, Пак Ин Хван, Сон Дон Иль, Ли Джин Ук, Ким Су Хён...
Описание: О МалСун — 74-летняя вдова, начинает понимать, что становится обузой для своей семьи. Бродя по улицам, она попадает в таинственную фотостудию, владелец которой утверждает, что ему подвластно запечатлеть момент расцвета молодости. Когда Малсун выходит из фотостудии, она загадочным образом возвращается в свой 20-летний возраст. Воспользовавшись возможностью, выпадающей раз в жизни, она меняет своё имя на О Ду-ри (в честь любимой актрисы Одри Хепберн) и решает использовать все преимущества молодости.
Релиз от -
Качество видео: HDRip
Формат видео: AVI
Видео: MPEG-4 Visual at 702 Кбит/сек; 688 x 368 (1.870) at 23.976 fps
Аудио: MPEG Audio at 128 Кбит/сек; 2 канала, 48,0 КГц
Автор -
MediaInfo
Общее
Полное имя : D:\Фильмы\Азиатские\Очень странная девушка\Miss Granny.2014.HDRip.XviD.745MB. rip by [Assassin's Creed].avi
Формат : AVI
Формат/Информация : Audio Video Interleave
Размер файла : 750 Мбайт
Продолжительность : 2 ч. 4 м.
Общий поток : 839 Кбит/сек
Программа кодирования : VirtualDubMod 1.5.10.2 (build 2540/release)
Библиотека кодирования : VirtualDubMod build 2540/release
Видео
Идентификатор : 0
Формат : MPEG-4 Visual
Профиль формата : Advanced Simple@L5
Параметр BVOP формата : 1
Параметр QPel формата : Нет
Параметр GMC формата : Без точки перехода
Параметр матрицы формата : Default (MPEG)
Идентификатор кодека : XVID
Идентификатор кодека/Подсказка : XviD
Продолжительность : 2 ч. 4 м.
Битрейт : 702 Кбит/сек
Ширина : 688 пикселей
Высота : 368 пикселей
Соотношение сторон : 1,85:1
Частота кадров : 23,976 кадра/сек
Цветовое пространство : YUV
Субдискретизация насыщенности : 4:2:0
Битовая глубина : 8 бит
Тип развёртки : Прогрессивная
Метод сжатия : С потерями
Бит/(Пиксели*Кадры) : 0.116
Размер потока : 627 Мбайт (84%)
Библиотека кодирования : XviD 1.2.1 (UTC 2008-12-04)
Аудио
Идентификатор : 1
Формат : MPEG Audio
Версия формата : Version 1
Профиль формата : Layer 3
Идентификатор кодека : 55
Идентификатор кодека/Подсказка : MP3
Продолжительность : 2 ч. 4 м.
Вид битрейта : Постоянный
Битрейт : 128 Кбит/сек
Каналы : 2 канала
Частота : 48,0 КГц
Метод сжатия : С потерями
Размер потока : 114 Мбайт (15%)
Выравнивание : Соединение по промежуткам
Продолжительность промежутка : 42 мс. (1,00 видеокадр)
Время предзагрузки промежутка : 504 мс.
Библиотека кодирования : LAME3.99r
Настройки программы : -m s -V 4 -q 2 -lowpass 17 -b 128
Скриншот c названием фильма Скриншоты
Скачать

Скачать торрент! Очень странная девушка / Мисс Бабуля / Miss Granny / Su-sang-han geu-nyeo (Хван Дон Хек / Hwang Dong-Hyuk) [2014, Южная Корея, фэнтези, комедия, музыка, HDRip] DVO [GREEN TEA]

Как скачивать? · Что такое торрент? · Рейтинг и ограничения

Сайт не распространяет и не хранит электронные версии произведений, а лишь предоставляет доступ к создаваемому пользователями каталогу ссылок на торрент-файлы, которые содержат только списки хеш-сумм

[Профиль] [ЛС]
Показать сообщения:    
Ответить на тему

Текущее время: Сегодня 21:19

Часовой пояс: GMT + 4



Вы не можете начинать темы
Вы не можете отвечать на сообщения
Вы не можете редактировать свои сообщения
Вы не можете удалять свои сообщения
Вы не можете голосовать в опросах
Вы не можете прикреплять файлы к сообщениям
Вы не можете скачивать файлы