Рам и Бхарат / Bhai Ho To Aisa (Манмохан Десаи / Manmohan Desai) [1972, Индия, Боевик, драма, комедия, DVDRip-AVC] VO (Nastia) + Sub Rus (на песни)

Ответить на тему
 
Автор Сообщение

user ®

Стаж: 12 лет

Сообщений: 15092

Пост Пост: #1 от 29-Окт-2014 14:35

[Цитировать]

Рам и Бхарат / Bhai Ho To Aisa
Страна: Индия
Жанр: Боевик, драма, комедия
Год выпуска: 1972
Продолжительность: 02:10:45
Перевод: Одноголосый закадровый Nastia
Cубтитры: русские (на песни)
Режиссер: Манмохан Десаи / Manmohan Desai
В ролях: Джитендра, Хема Малини, Шатругхан Синха, Бипин Гупта, Бела Бозе, Правин Паул, Тивари, Виджу Хоте, Джанкидас, Джагдип
Описание: У богатого Тхакура два сына: старший Рам — пьяница и распутник, младший Бхарат — скромный и набожный юноша, помолвленный с дочерью священника Рупой. Застав старшего сына ворующим деньги из семейного сейфа, Тхакур умирает от сердечного приступа, завещав перед смертью все свое имущество Бхарату и жене Рама Гаяйтри. Недовольный завещанием отца, Рам вместе с дядей сговорились убить Бхарата. Узнав о заговоре, Бхарат со своим другом Джагги придумал свой план, переодевшись в разбойника Мангала Сингха. Думая, что убил брата, Рам приводит Мангала Сингха во дворец. Младший брат всеми силами пытается изменить своего алчного старшего брата, но тут его обвиняют в убийстве себя самого…
Доп. информация: Релиз
Материалы: larisa_k (Спасибо!)
Озвучка: Nastia (Спасибо!)
Сведение аудио, перевод: керелис (Спасибо!)
Сэмпл: http://multi-up.com/1009399
Качество видео: DVDRip-AVC
Формат видео: MKV
Видео: 720x560 (1.28:1), 25.611 fps, AVC, ~1915 Kbps, 0.185 bits/pixel
Аудио: Русский, 48.0 KHz, AC3, 2 ch, 192 Kbps
MediaInfo
General
Complete name : F:\Ram.I.Bharat.1972.DVDRip.x264.BWTorrents.mkv
Format : Matroska
File size : 1.96 GiB
Duration : 2h 10mn
Overall bit rate : 2 150 Kbps
Encoded date : UTC 2014-10-28 04:07:04
Writing application : mkvmerge v6.0.0 ('Coming Up For Air') built on Jan 20 2013 09:52:00
Writing library : libebml v1.3.0 + libmatroska v1.4.0
Video
ID : 1
Format : AVC
Format/Info : Advanced Video Codec
Format profile : High@L3.1
Format settings, CABAC : Yes
Format settings, ReFrames : 7 frames
Muxing mode : Container profile=Unknown@3.1
Codec ID : V_MPEG4/ISO/AVC
Duration : 2h 8mn
Bit rate : 1 915 Kbps
Nominal bit rate : 1 957 Kbps
Width : 720 pixels
Height : 560 pixels
Display aspect ratio : 1.286
Frame rate mode : Variable
Frame rate : 25.611 fps
Resolution : 24 bits
Colorimetry : 4:2:0
Scan type : Progressive
Bits/(Pixel*Frame) : 0.185
Stream size : 1.72 GiB (88%)
Writing library : x264 core 112
Encoding settings : cabac=1 / ref=7 / deblock=1:0:0 / analyse=0x3:0x113 / me=umh / subme=7 / psy=1 / psy_rd=1.00:0.00 / mixed_ref=1 / me_range=16 / chroma_me=1 / trellis=1 / 8x8dct=1 / cqm=0 / deadzone=21,11 / fast_pskip=1 / chroma_qp_offset=-2 / threads=3 / sliced_threads=0 / nr=0 / decimate=1 / interlaced=0 / constrained_intra=0 / bframes=3 / b_pyramid=2 / b_adapt=2 / b_bias=0 / direct=1 / weightb=1 / open_gop=0 / weightp=2 / keyint=300 / keyint_min=25 / scenecut=40 / intra_refresh=0 / rc_lookahead=50 / rc=2pass / mbtree=1 / bitrate=1957 / ratetol=1.0 / qcomp=0.60 / qpmin=3 / qpmax=51 / qpstep=4 / cplxblur=20.0 / qblur=0.5 / ip_ratio=1.40 / aq=1:1.00
Audio
ID : 2
Format : AC-3
Format/Info : Audio Coding 3
Codec ID : A_AC3
Duration : 2h 10mn
Bit rate mode : Constant
Bit rate : 192 Kbps
Channel(s) : 2 channels
Channel positions : L R
Sampling rate : 48.0 KHz
Stream size : 180 MiB (9%)
Title : АС3 2сh@192
Language : Russian
Text
ID : 3
Format : UTF-8
Codec ID : S_TEXT/UTF8
Codec ID/Info : UTF-8 Plain Text
Title : - субтитры на песни -
Language : Russian
Menu
00:00:00.000 : en:Chapter 1
00:04:29.377 : en:Chapter 2
00:08:30.977 : en:Chapter 3
00:15:04.870 : en:Chapter 4
00:19:20.342 : en:Chapter 5
00:25:45.110 : en:Chapter 6
00:29:27.182 : en:Chapter 7
00:34:13.026 : en:Chapter 8
00:35:48.880 : en:Chapter 9
00:46:40.397 : en:Chapter 10
00:51:50.999 : en:Chapter 11
00:55:30.060 : en:Chapter 12
01:02:13.429 : en:Chapter 13
01:13:53.962 : en:Chapter 14
01:18:14.247 : en:Chapter 15
01:21:05.560 : en:Chapter 16
01:25:11.239 : en:Chapter 17
01:35:24.585 : en:Chapter 18
01:40:12.639 : en:Chapter 19
01:44:50.684 : en:Chapter 20
01:53:14.287 : en:Chapter 21
01:59:09.525 : en:Chapter 22
01:59:47.688 : en:Chapter 23
02:00:33.659 : en:Chapter 24
02:08:02.174 : en:Chapter 25
02:09:05.938 : en:Chapter 26
02:10:32.291 : en:Chapter 27
Скриншоты
Скачать

Скачать торрент! Рам и Бхарат / Bhai Ho To Aisa (Манмохан Десаи / Manmohan Desai) [1972, Индия, Боевик, драма, комедия, DVDRip-AVC] VO (Nastia) + Sub Rus (на песни)

Как скачивать? · Что такое торрент? · Рейтинг и ограничения

Сайт не распространяет и не хранит электронные версии произведений, а лишь предоставляет доступ к создаваемому пользователями каталогу ссылок на торрент-файлы, которые содержат только списки хеш-сумм

[Профиль] [ЛС]
Показать сообщения:    
Ответить на тему

Текущее время: Сегодня 06:19

Часовой пояс: GMT + 4



Вы не можете начинать темы
Вы не можете отвечать на сообщения
Вы не можете редактировать свои сообщения
Вы не можете удалять свои сообщения
Вы не можете голосовать в опросах
Вы не можете прикреплять файлы к сообщениям
Вы не можете скачивать файлы