Сказ о землевладельце и его автомобиле / Pannaiyarum Padminiyum (С.У. Арун Кумар / S. U. Arun Kumar) [2014, Индия, Семейный, DVDRip] Sub Rus

Ответить на тему
 
Автор Сообщение

user ®

Стаж: 12 лет

Сообщений: 15092

Пост Пост: #1 от 29-Окт-2014 11:25

[Цитировать]

Сказ о землевладельце и его автомобиле / Pannaiyarum Padminiyum
Страна: Индия
Оригинальная аудиодорожка: Тамильская
Жанр: Семейный
Год выпуска: 2014
Продолжительность: 02:27:00
Перевод: Субтитры
Cубтитры: русские
Перевод и редакция субтитров: Net
Режиссер: С.У. Арун Кумар / S. U. Arun Kumar
В ролях: Виджай Сетупати, Джаяпракаш, Туласи, Айшварья Раджеш, Бала Сараванан, Нилима Рани, Снеха (спец.приглашённая), Динеш(спец.приглашённый)
Описание: Это необычная история... Каждая деревня хранит свои легенды и сказания. Но у нашей деревни она особенная, и имя ей - Падмини. Маленький автомобиль, перевернувший жизнь целой деревни... Даже у железа есть сердце и душа, а чтобы они забились, нужно... Впрочем, смотрите фильм... Приятной поездки на нашей Падмини!
Сэмпл: http://multi-up.com/1009328
Качество видео: DVDRip
Формат видео: AVI
Видео: XviD, 720x304, 29.97 fps, 1256 kbps
Аудио: AC3, 44.1 kHz, 5.1 (6 ch), 448 kbps
Формат субтитров: hardsub (неотключаемые)
MediaInfo
Format : AVI
Format/Info : Audio Video Interleave
File size : 1.76 GiB
Duration : 2h 27mn
Overall bit rate : 1 716 Kbps
Writing application : VirtualDubMod 1.5.10.2 (build 2542/release)
Writing library : VirtualDubMod build 2542/release
Video #0
ID : 0
Format : MPEG-4 Visual
Format profile : Advanced Simple@L5
Format settings, BVOP : 2
Format settings, QPel : No
Format settings, GMC : No warppoints
Format settings, Matrix : Default (H.263)
Muxing mode : Packed bitstream
Codec ID : XVID
Codec ID/Hint : XviD
Duration : 2h 27mn
Bit rate : 1 256 Kbps
Width : 720 pixels
Height : 304 pixels
Display aspect ratio : 2.35:1
Frame rate : 29.970 fps
Color space : YUV
Chroma subsampling : 4:2:0
Bit depth : 8 bits
Scan type : Progressive
Compression mode : Lossy
Bits/(Pixel*Frame) : 0.191
Stream size : 1.29 GiB (73%)
Writing library : XviD 63
Audio #1
ID : 1
Format : AC-3
Format/Info : Audio Coding 3
Mode extension : CM (complete main)
Codec ID : 2000
Duration : 2h 27mn
Bit rate mode : Constant
Bit rate : 448 Kbps
Channel(s) : 6 channels
Channel positions : Front: L C R, Side: L R, LFE
Sampling rate : 48.0 KHz
Bit depth : 16 bits
Compression mode : Lossy
Stream size : 471 MiB (26%)
Alignment : Split accross interleaves
Interleave, duration : 33 ms (1.00 video frame)
Interleave, preload duration : 500 ms
Language : Tamil
Скриншот c названием фильма Скриншоты
Скачать

Скачать торрент! Сказ о землевладельце и его автомобиле / Pannaiyarum Padminiyum (С.У. Арун Кумар / S. U. Arun Kumar) [2014, Индия, Семейный, DVDRip] Sub Rus

Как скачивать? · Что такое торрент? · Рейтинг и ограничения

Сайт не распространяет и не хранит электронные версии произведений, а лишь предоставляет доступ к создаваемому пользователями каталогу ссылок на торрент-файлы, которые содержат только списки хеш-сумм

[Профиль] [ЛС]
Показать сообщения:    
Ответить на тему

Текущее время: Сегодня 15:41

Часовой пояс: GMT + 4



Вы не можете начинать темы
Вы не можете отвечать на сообщения
Вы не можете редактировать свои сообщения
Вы не можете удалять свои сообщения
Вы не можете голосовать в опросах
Вы не можете прикреплять файлы к сообщениям
Вы не можете скачивать файлы