Существо / Creature (Викрам Бхатт / Vikram Bhatt) [2014, Индия, Ужасы, триллер, DVDRip] DVO

Ответить на тему
 
Автор Сообщение

user ®

Стаж: 13 лет

Сообщений: 15070

Пост Пост: #1 от 20-Окт-2014 20:10

[Цитировать]

Существо / Creature
-Страна: Индия
Жанр: Ужасы, триллер
Год выпуска: 2014
Продолжительность: 02:17:41-Перевод: Любительский (двухголосый закадровый) - DeadSno & den904
Субтитры: нет--Режиссер: Викрам Бхатт / Vikram Bhatt-В ролях: Бипаша Басу, Имран Аббас, Апарна Баджпаи, Амит Тандон, Мукул Дев, Дипрадж Рана, Викрамджит Сингх--Описание: Согласно индийским преданиям, брахма-ракшасы – демоны-людоеды, проклятые самим богом Брахмой. Они были сокрушены богами и заточены в ловушки на долгие столетия. Но однажды, при строительстве дороги в Бхопале, рабочие допускают огромную ошибку и срубают священное дерево Баньян, тем самым открыв портал одному из демонов. Вернувшись в этот мир, он начинает пожирать жителей деревни, а также гостей, прибывших на открытие нового отеля. Владелица отеля, Ахана начинает смертельную битву с демоном, где может выжить лишь один….-- | --Качество видео: DVDRip
Исходник: DVD9 R1
Формат видео: AVI-Видео: 704x304 (2.32:1), 23.976 fps, XviD build 50 ~1376 kbps avg, 0.27 bit/pixel
Аудио: 48 kHz, MPEG Layer 3, 2 ch, ~128.00 kbps-
-
-Сэмпл / Sample--Творческая озвучка: DeadSno & den904 (спасибо!)
Перевод на русский язык: Honey&Haseena (спасибо!)
Риппер: soso4eg-- -
-
Скриншот с названием
-
Скриншоты
-
MI
General
Complete name : C:\INDIYA\Suschestvo.2014.DVDRip.XviD-soso4eg.avi
Format : AVI
Format/Info : Audio Video Interleave
File size : 1.46 GiB
Duration : 2h 17mn
Overall bit rate : 1 514 Kbps
Movie name : Creature.2014.DVDRip.XviD-soso4eg
Director : soso4eg
Writing application : VirtualDubMod 1.5.10.3 | www.virtualdub-fr.org || (build 2550/release)
Copyright : специально для BitTorrent трекер *** (ex torrents.ru)
Comment : пер. LDVO по суб. Honey&Haseena
Video
ID : 0
Format : MPEG-4 Visual
Format profile : Advanced Simple@L5
Format settings, BVOP : 1
Format settings, QPel : No
Format settings, GMC : No warppoints
Format settings, Matrix : Default (H.263)
Codec ID : XVID
Codec ID/Hint : XviD
Duration : 2h 17mn
Bit rate : 1 377 Kbps
Width : 704 pixels
Height : 304 pixels
Display aspect ratio : 2.35:1
Frame rate : 23.976 fps
Color space : YUV
Chroma subsampling : 4:2:0
Bit depth : 8 bits
Scan type : Progressive
Compression mode : Lossy
Bits/(Pixel*Frame) : 0.268
Stream size : 1.32 GiB (91%)
Writing library : XviD 1.2.1 (UTC 2008-12-04)
Audio
ID : 1
Format : MPEG Audio
Format version : Version 1
Format profile : Layer 3
Mode : Joint stereo
Mode extension : MS Stereo
Codec ID : 55
Codec ID/Hint : MP3
Duration : 2h 17mn
Bit rate mode : Constant
Bit rate : 128 Kbps
Channel count : 2 channels
Sampling rate : 48.0 KHz
Compression mode : Lossy
Stream size : 126 MiB (8%)
Alignment : Aligned on interleaves
Interleave, duration : 42 ms (1.00 video frame)
Interleave, preload duration : 504 ms

-
-
Скачать

Скачать торрент! Существо / Creature (Викрам Бхатт / Vikram Bhatt) [2014, Индия, Ужасы, триллер, DVDRip] DVO

Как скачивать? · Что такое торрент? · Рейтинг и ограничения

Сайт не распространяет и не хранит электронные версии произведений, а лишь предоставляет доступ к создаваемому пользователями каталогу ссылок на торрент-файлы, которые содержат только списки хеш-сумм

[Профиль] [ЛС]
Показать сообщения:    
Ответить на тему

Текущее время: Сегодня 15:38

Часовой пояс: GMT + 4



Вы не можете начинать темы
Вы не можете отвечать на сообщения
Вы не можете редактировать свои сообщения
Вы не можете удалять свои сообщения
Вы не можете голосовать в опросах
Вы не можете прикреплять файлы к сообщениям
Вы не можете скачивать файлы