Быть или...пить? (Б. Шошитаишвили) [1985, Грузия-фильм, мультфильм для взрослых, VHSRip]

Ответить на тему
 
Автор Сообщение

user ®

Стаж: 7 лет 7 месяцев

Сообщений: 20008

Пост Пост: #1 от 19-Окт-2014 02:15

[Цитировать]

Быть или...пить?
Страна: СССР
Жанр: мультфильм для взрослых
Продолжительность: 00:09:39
Год выпуска: 1985
Режиссёр: Б. Шошитаишвили
Описание: Печальная история о некогда трудолюбивом человеке, потерявшем человеческий облик из-за пристрастия к алкоголю
Доп. информация: Фильм оцифрован с киноплёнки 16-мм
Качество: VHSRip
Формат: mpg
Видео: MPEG, 4:3, 720х576, 25 fps, 3441 kbps
Аудио: Layer 2, 48 кHz, 2 ch, 256 kbps
Подробные технические данные
ОбщееПолное имя :Быть или пить.mpgФормат : MPEG-PSРазмер файла : 238 МбайтПродолжительность : 9 м. 39 с.Режим общего битрейта : ПеременныйОбщий поток : 3441 Кбит/сек
ВидеоИдентификатор : 224 (0xE0)Формат : MPEG VideoВерсия формата : Version 2Профиль формата : Main@MainПараметр BVOP формата : ДаПараметр матрицы формата : По умолчаниюПараметр GOP формата : VariableПродолжительность : 9 м. 39 с.Вид битрейта : ПеременныйБитрейт : 3117 Кбит/секШирина : 720 пикселейВысота : 576 пикселейСоотношение сторон : 5:4Частота кадров : 25,000 кадров/секСтандарт вещания : PALЦветовое пространство : YUVСубдискретизация насыщенности : 4:2:0Битовая глубина : 8 битТип развёртки : ПрогрессивнаяМетод сжатия : С потерямиБит/(Пиксели*Кадры) : 0.301Временной код первого кадра : 00:00:00:00Оригинал временного кода : Group of pictures headerРазмер потока : 215 Мбайт (91%)
АудиоИдентификатор : 192 (0xC0)Формат : MPEG AudioВерсия формата : Version 1Профиль формата : Layer 2Продолжительность : 9 м. 39 с.Вид битрейта : ПостоянныйБитрейт : 256 Кбит/секКаналы : 2 каналаЧастота : 48,0 КГцМетод сжатия : С потерямиРазмер потока : 17,7 Мбайт (7%)
Скриншоты
, , ,
Скачать

Скачать торрент!

Как скачивать? · Что такое торрент? · Рейтинг и ограничения

Сайт не распространяет и не хранит электронные версии произведений, а лишь предоставляет доступ к создаваемому пользователями каталогу ссылок на торрент-файлы, которые содержат только списки хеш-сумм

[Профиль] [ЛС]
Показать сообщения:    
Ответить на тему

Текущее время: Сегодня 20:21

Часовой пояс: GMT + 4



Вы не можете начинать темы
Вы не можете отвечать на сообщения
Вы не можете редактировать свои сообщения
Вы не можете удалять свои сообщения
Вы не можете голосовать в опросах
Вы не можете прикреплять файлы к сообщениям
Вы не можете скачивать файлы