Старое кафе / Отель "Устад" / Ustad Hotel (Анвар Рашид / Anwar Rasheed) [2012, Индия, Драма, DVDRip-AVC] MVO (Red Media)

Ответить на тему
 
Автор Сообщение

user ®

Стаж: 12 лет

Сообщений: 15092

Пост Пост: #1 от 18-Окт-2014 19:35

[Цитировать]

Старое кафе / Ustad Hotel
-Страна: Индия
Жанр: Драма
Год выпуска: 2012
Продолжительность: 02:30:12-Перевод: Профессиональный (многоголосый закадровый) - Red Media (ТК Индия ТВ)
Cубтитры: Нет-Режиссер: Анвар Рашид / Anwar Rasheed-В ролях: Дулкар Салман, Тилакан, Нитья Менен, Сиддик, Мамуккойя, Асиф Али (камео)-Описание: Этот удивительно теплый и солнечный фильм рассказывает о молодом человеке - Файзи (в исполнении сына легендарного Маммутти - Дулкера Салмана), который решается пойти против воли своего отца - Абдула, для кого статус и деньги имеют большое значение, и судьбу сына - на ком жениться, чем заниматься в жизни - он решил наперед. Но Файзи втайне от отца изучает за границей вовсе не гостиничный бизнес, а высокую кухню, а быть поваром в глазах Абдула - позор. Так Файзи оказывается у своего деда Карима, повара и владельца маленького отеля в Кожикоде, названного "Устад", ведь так к Кариму обращаются многие, "устад" означает "учитель", "мастер".
Сможет ли Файзи идти за своей мечтой наперекор всему? Как сложатся его отношения с дедом, которого стыдится отец? Простит ли отец его дерзость? Разве что необыкновенные рассветы, шелест волн, аппетитные блюда индийской кухни будут отвлекать вас от этой простой, но искренней жизненной истории. (с) Oksanchic2013-Доп. информация:
  • Фильм стал последней ролью легендарного актера малаяламского кино Тилакана (играет дедушку), умершего спустя несколько месяцев после релиза.
  • Фильм был высоко оценен как критиками, так и зрителями.
    Премия National Film Awards за лучший популярный фильм, лучшие диалоги и специальная посмертная премия Тилакану.
  • Фильм снят на malayalam
    -
    - -Качество видео: DVDRip-AVC
    Формат видео: AVI-Видео: AVC, 640x272, 29.970 fps, 578 Кбит/сек
    Audio: 48 kHz, MP3, 2/0 (L,R) ch, ~112 kbps-Сэмпл / Sample-Cинхрон. звука: soso4eg- -
    -
    Скриншот с названием:

-
Скриншоты:
-
MI
General
Unique ID : 207708665527216748331419590806454386107 (0x9C433BDE8F8F17C78BFEF9072387BDBB)
Complete name : D:\[BwT]\[DVDRip]\Staroe.Kafe.2012.DVDRip.x264-soso4eg.mkv
Format : Matroska
Format version : Version 4 / Version 2
File size : 744 MiB
Duration : 2h 30mn
Overall bit rate : 692 Kbps
Encoded date : UTC 2014-10-17 21:41:32
Writing application : mkvmerge v6.4.1 ('Omega Point') built on Sep 16 2013 22:05:10
Writing library : libebml v1.3.0 + libmatroska v1.4.1
Video
ID : 1
Format : AVC
Format/Info : Advanced Video Codec
Format profile : High@L3.1
Format settings, CABAC : Yes
Format settings, ReFrames : 10 frames
Codec ID : V_MPEG4/ISO/AVC
Duration : 2h 30mn
Bit rate : 578 Kbps
Width : 640 pixels
Height : 272 pixels
Display aspect ratio : 2.35:1
Frame rate mode : Constant
Frame rate : 29.970 fps
Color space : YUV
Chroma subsampling : 4:2:0
Bit depth : 8 bits
Scan type : Progressive
Bits/(Pixel*Frame) : 0.111
Stream size : 609 MiB (82%)
Writing library : x264 core 125 r2200 999b753
Encoding settings : cabac=1 / ref=10 / deblock=1:-1:-1 / analyse=0x3:0x133 / me=umh / subme=7 / psy=1 / psy_rd=1.00:0.00 / mixed_ref=1 / me_range=24 / chroma_me=1 / trellis=2 / 8x8dct=1 / cqm=1 / deadzone=21,11 / fast_pskip=0 / chroma_qp_offset=-2 / threads=3 / lookahead_threads=1 / sliced_threads=0 / nr=0 / decimate=1 / interlaced=0 / bluray_compat=0 / constrained_intra=0 / bframes=2 / b_pyramid=2 / b_adapt=2 / b_bias=0 / direct=1 / weightb=1 / open_gop=0 / weightp=2 / keyint=300 / keyint_min=29 / scenecut=40 / intra_refresh=0 / rc_lookahead=50 / rc=2pass / mbtree=1 / bitrate=578 / ratetol=1.0 / qcomp=0.70 / qpmin=3 / qpmax=69 / qpstep=4 / cplxblur=20.0 / qblur=0.5 / ip_ratio=1.40 / aq=1:1.00
Language : English
Default : Yes
Forced : No
Audio
ID : 2
Format : MPEG Audio
Format version : Version 1
Format profile : Layer 3
Mode : Joint stereo
Codec ID : A_MPEG/L3
Codec ID/Hint : MP3
Duration : 2h 30mn
Bit rate mode : Constant
Bit rate : 112 Kbps
Channel count : 2 channels
Sampling rate : 44.1 KHz
Compression mode : Lossy
Stream size : 120 MiB (16%)
Title : Red Media MP3 2ch - soso4eg
Writing library : LAME3.90.3
Language : Russian
Default : Yes
Forced : Yes
Скачать

Скачать торрент! Старое кафе / Отель "Устад" / Ustad Hotel (Анвар Рашид / Anwar Rasheed) [2012, Индия, Драма, DVDRip-AVC] MVO (Red Media)

Как скачивать? · Что такое торрент? · Рейтинг и ограничения

Сайт не распространяет и не хранит электронные версии произведений, а лишь предоставляет доступ к создаваемому пользователями каталогу ссылок на торрент-файлы, которые содержат только списки хеш-сумм

[Профиль] [ЛС]
Показать сообщения:    
Ответить на тему

Текущее время: Сегодня 02:54

Часовой пояс: GMT + 4



Вы не можете начинать темы
Вы не можете отвечать на сообщения
Вы не можете редактировать свои сообщения
Вы не можете удалять свои сообщения
Вы не можете голосовать в опросах
Вы не можете прикреплять файлы к сообщениям
Вы не можете скачивать файлы