Император и убийца / The Emperor and the Assassin (Чэнь Кайгэ / Chen Kaige) [1998, Китай, Япония, Франция, историческая драма, DVDRip] AVO (Юрий Сербин)

Ответить на тему
 
Автор Сообщение

user ®

Стаж: 13 лет

Сообщений: 15071

Пост Пост: #1 от 13-Окт-2014 02:00

[Цитировать]

Император и убийца / The Emperor and the Assassin
Страна: Китай, Япония, Франция
Жанр: историческая драма
Год выпуска: 1998
Продолжительность: 02:33:42
Перевод: Авторский (одноголосый закадровый) Юрий Сербин
Cубтитры: нет
Оригинальная аудиодорожка: нет
Режиссер: Чэнь Кайгэ / Chen Kaige
В ролях: Гун Ли, Чжан Фэни, Сунь Чжоу, Сяохэ Лу, Чживэнь Ван, Чэнь Кайгэ
Описание: В 221 году до н.э. Жен Йин, повелитель царства Кин, пытается подчинить себе все китайские княжества. Он вошел в историю как первый император Китая. Посмотрев эту эпическую картину, Вы узнаете, сколь трагична была борьба для него самого и его близких. С детства Жен Йин был другом принцессы Жао из княжества Янь. Когда он стал повелителем Кин, она поверила его словам о том, что он хочет объединить все княжества, дабы воцарился мир и прекратились войны, и предложила ему хитроумный план, чтобы получить возможность покорить Янь без войны. Поставив себе на лицо клеймо Кин, Жао отправилась к принцу княжества Янь и уговорила его подослать к будущему императору убийцу, о котором тот должен будет знать. Однако время, насилие и беспрерывные войны многое изменили. Очень непростым и страшно кровавым оказался путь к миру. После того как родное княжество принцессы Жао было уничтожено, а все дети царства Янь умерщвлены, она изменила свой план. Убийца, чья история сама по себе интересна, должен на самом деле убить императора...
Эта картина будет интересна не только любителям исторических батальных лент. Прежде всего - это трагедия, драма, достойная пера Шекспира. (Иванов М.)
Фильм участвовал в конкурсной программе на МКФ в Канне в 1999 году, был также показан во внеконкурсной программе Московского МКФ.
Доп. информация:
Исходник - DVD9 [url=http://***/forum/viewtopic.php?t=319678]http://***/forum/viewtopic.php?t=319678[/url].
За звуковую дорожку с переводом Юрия Сербина с лицензионной VHS от компании "Пирамида" большое спасибо denis_mgn_1987.
За создание видеоряда, синхронизацию звуковой дороги и работу со звуком огромная благодарность ale_x2008.
Сэмпл: http://sendfile.su/1034313
Качество видео: DVDRip
Формат видео: AVI
Видео: 704x544, 25.000 fps, MPEG-4 Visual, 1830 Kbps, XviD 73
Аудио: 48 KHz, AC3, 2 ch, 192 Kbps
MediaInfo
General
Complete name : C:\Users\Сергей\Downloads\Император и убийца.avi
Format : AVI
Format/Info : Audio Video Interleave
Format profile : OpenDML
File size : 2.18 GiB
Duration : 2h 33mn
Overall bit rate : 2 034 Kbps
Director : ale_x2008
Genre : Historical drama
Writing application : VirtualDubMod 1.5.10.3 (build 2550/release)
Original source form/Name : Movie
Comment : 12.10.2014
Video
ID : 0
Format : MPEG-4 Visual
Format profile : Advanced Simple@L5
Format settings, BVOP : 1
Format settings, QPel : No
Format settings, GMC : No warppoints
Format settings, Matrix : Default (MPEG)
Codec ID : XVID
Codec ID/Hint : XviD
Duration : 2h 33mn
Bit rate : 1 830 Kbps
Width : 704 pixels
Height : 544 pixels
Display aspect ratio : 1.294
Frame rate : 25.000 fps
Color space : YUV
Chroma subsampling : 4:2:0
Bit depth : 8 bits
Scan type : Progressive
Compression mode : Lossy
Bits/(Pixel*Frame) : 0.191
Stream size : 1.96 GiB (90%)
Writing library : XviD 73
Audio
ID : 1
Format : AC-3
Format/Info : Audio Coding 3
Mode extension : CM (complete main)
Format settings, Endianness : Big
Codec ID : 2000
Duration : 2h 33mn
Bit rate mode : Constant
Bit rate : 192 Kbps
Channel(s) : 2 channels
Channel positions : Front: L R
Sampling rate : 48.0 KHz
Bit depth : 16 bits
Compression mode : Lossy
Delay relative to video : 27ms
Stream size : 211 MiB (9%)
Alignment : Split accross interleaves
Interleave, duration : 40 ms (1.00 video frame)
Interleave, preload duration : 500 ms
Скриншоты
Скачать

Скачать торрент! Император и убийца / The Emperor and the Assassin (Чэнь Кайгэ / Chen Kaige) [1998, Китай, Япония, Франция, историческая драма, DVDRip] AVO (Юрий Сербин)

Как скачивать? · Что такое торрент? · Рейтинг и ограничения

Сайт не распространяет и не хранит электронные версии произведений, а лишь предоставляет доступ к создаваемому пользователями каталогу ссылок на торрент-файлы, которые содержат только списки хеш-сумм

[Профиль] [ЛС]
Показать сообщения:    
Ответить на тему

Текущее время: Сегодня 21:48

Часовой пояс: GMT + 4



Вы не можете начинать темы
Вы не можете отвечать на сообщения
Вы не можете редактировать свои сообщения
Вы не можете удалять свои сообщения
Вы не можете голосовать в опросах
Вы не можете прикреплять файлы к сообщениям
Вы не можете скачивать файлы