Плакальщица / Плачущая женщина / The Dirge Singer / The Crying Woman / Funeral Singer / Gok Bi (Ли Ын Джин / Lee Eun-jin) [2014, Южная Корея, романтика, драма, исторический, HDRip] sub

Ответить на тему
 
Автор Сообщение

user ®

Стаж: 13 лет

Сообщений: 15071

Пост Пост: #1 от 12-Окт-2014 12:10

[Цитировать]

Плакальщица / Плачущая женщина /
The Dirge Singer / The Crying Woman / Funeral Singer / Gok Bi / 곡비 / 哭婢

Страна: Южная Корея
Жанр: романтика, драма, исторический
Год выпуска: 2014
Продолжительность: 01:09:22
Перевод: субтитры и перевод от "FlaVi"
Cубтитры: русские
Оригинальная аудиодорожка: корейский
Режиссер: Ли Ын Джин / Lee Eun-jin
В ролях: Ким Ю Чжон / Kim Yoo Jung / 김유정
Су Джун Ён / Suh Joon Young / 서준영
Хван Ми Сон / Hwang Mi Sun / 황미선
Им Чжи Ын / Im Ji Eun / 임지은
Ан Чжи Хён / Ahn Ji Hyun / 안지현
Юн Да Гён / Yoon Da Kyung
Описание: Молодая девушка Ён Шим родилась в эпоху Чосон в семье плакальщиц (люди, которые рыдают и поют горестную песню в похоронной процессии дворян, которая должна проходить через весь город).
Эта участь Ён Шим, с рождения предопределяет, что ее место "на социальной лестнице" находится в самом низу. Ей суждено стать плакальщицей на похоронах, так же как до нее пришлось стать ее матери и бабушке. У девушки просто нет выбора, но она восстает против такой жизни и хочет стать кисэн. А зачем она так жаждет этого? Из-за того, чтобы приблизиться к Юн Су, внебрачному сыну дворянина и чтобы стать кисэн? Или у нее есть на то другие причины?...
Доп. информация:
Возрастное ограничение: 16+
Сэмпл: http://multi-up.com/1005470
Качество видео: HDRip
Формат видео: AVI
Видео: H264, 720 х 480, 1766 Кбит/сек,
Аудио: AC-3, 2 ch, 44,1 КГц, 224 Кбит/сек (оригинал)
Формат субтитров: hardsub (неотключаемые)
MediaInfo
Общее
Полное имя : C:\Users\User\Downloads\Плакальщица\Плакальщица_The Dirge Singer_곡비(哭婢)_Gok Bi (Drama Specia KBS2) (1).avi
Формат : AVI
Формат/Информация : Audio Video Interleave
Размер файла : 1009 Мбайт
Продолжительность : 1 ч. 9 м.
Общий поток : 2032 Кбит/сек
Программа кодирования : Lavf54.63.104
Видео
Идентификатор : 0
Формат : AVC
Формат/Информация : Advanced Video Codec
Профиль формата : Main@L3.0
Параметр CABAC формата : Да
Параметр ReFrames формата : 1 кадр
Идентификатор кодека : H264
Продолжительность : 1 ч. 9 м.
Битрейт : 1766 Кбит/сек
Ширина : 720 пикселей
Высота : 480 пикселей
Соотношение сторон : 3:2
Режим частоты кадров : Переменный
Частота кадров : 25,000 кадров/сек
Стандарт вещания : NTSC
Цветовое пространство : YUV
Субдискретизация насыщенности : 4:2:0
Битовая глубина : 8 бит
Тип развёртки : Прогрессивная
Бит/(Пиксели*Кадры) : 0.204
Размер потока : 892 Мбайт (88%)
Библиотека кодирования : x264 core 129
Настройки программы : cabac=1 / ref=1 / deblock=1:0:0 / analyse=0x1:0x131 / me=dia / subme=2 / psy=1 / psy_rd=1.00:0.00 / mixed_ref=0 / me_range=16 / chroma_me=1 / trellis=0 / 8x8dct=0 / cqm=0 / deadzone=21,11 / fast_pskip=1 / chroma_qp_offset=0 / threads=4 / lookahead_threads=1 / sliced_threads=0 / nr=0 / decimate=1 / interlaced=0 / bluray_compat=0 / constrained_intra=0 / bframes=0 / weightp=2 / keyint=250 / keyint_min=25 / scenecut=40 / intra_refresh=0 / rc_lookahead=40 / rc=abr / mbtree=1 / bitrate=1766 / ratetol=1.0 / qcomp=0.60 / qpmin=10 / qpmax=51 / qpstep=4 / ip_ratio=1.41 / aq=1:1.00
Аудио
Идентификатор : 1
Формат : AC-3
Формат/Информация : Audio Coding 3
Расширение режима : CM (complete main)
Параметр Endianness формата : Big
Идентификатор кодека : 2000
Продолжительность : 1 ч. 9 м.
Вид битрейта : Постоянный
Битрейт : 224 Кбит/сек
Каналы : 2 канала
Расположение каналов : Front: L R
Частота : 44,1 КГц
Битовая глубина : 16 бит
Метод сжатия : С потерями
Размер потока : 111 Мбайт (11%)
Выравнивание : Соединение по промежуткам
Продолжительность промежутка : 35 мс. (0,87 видеокадр)
Скриншот c названием фильма Скриншоты
Скачать

Скачать торрент! Плакальщица / Плачущая женщина / The Dirge Singer / The Crying Woman / Funeral Singer / Gok Bi (Ли Ын Джин / Lee Eun-jin) [2014, Южная Корея, романтика, драма, исторический, HDRip] sub

Как скачивать? · Что такое торрент? · Рейтинг и ограничения

Сайт не распространяет и не хранит электронные версии произведений, а лишь предоставляет доступ к создаваемому пользователями каталогу ссылок на торрент-файлы, которые содержат только списки хеш-сумм

[Профиль] [ЛС]
Показать сообщения:    
Ответить на тему

Текущее время: Сегодня 18:19

Часовой пояс: GMT + 4



Вы не можете начинать темы
Вы не можете отвечать на сообщения
Вы не можете редактировать свои сообщения
Вы не можете удалять свои сообщения
Вы не можете голосовать в опросах
Вы не можете прикреплять файлы к сообщениям
Вы не можете скачивать файлы