Королева / Queen (Викас Бехл / Vikas Bahl) [2014, Индия, Драма, комедия, HDRip] VO (Pashaup) + Sub Rus (на песни)

Ответить на тему
 
Автор Сообщение

user ®

Стаж: 12 лет

Сообщений: 15092

Пост Пост: #1 от 08-Окт-2014 17:55

[Цитировать]

Королева / Queen
Страна: Индия
Жанр: Драма, комедия
Год выпуска: 2014
Продолжительность: 02:25:01
Перевод: Одноголосый закадровый Рashaup
Cубтитры: русские (внешние, только на песни)
Режиссер: Викас Бехл / Vikas Bahl
В ролях: Кангана Ранаут, Раджкумар Рао, Лиза Хейдон, Миш Бойко, Марко Санадеа
Описание: Рани и Виджай давно встречаются и решили сыграть свадьбу.Но за день до свадьбы Виджай сообщает невесте ,что никак не может на ней жениться.В расстроенных чувствах девушка заперлась на сутки в комнате.А на следующий день Рани вспомнила,что у нее уже оплачено свадебное путешествие,о котором она мечтала с 17 лет.И на зло всем бедам девушка решает поехать в это путешествие одна...
Доп. информация: Исходник BDRip (720p) (СПАСИБО! WiKi)
Озвучил Рashaup по субтитрам Sамира (Спасибо!)
Сэмпл: http://multi-up.com/1004667
Качество видео: HDRip
Формат видео: AVI
Видео: XviD build 50, 720x304 (2.37:1), 24 fps, 1571 kbps avg
Аудио: AC3 Dolby Digital, 48 kHz, 3/2 (L,C,R,l,r) + LFE ch, 448 kbps
MediaInfo
General
Complete name : D:\Koroleva.2014.XviD.HDRip-Dego\Koroleva.2014.XviD.HDRip-Dego.avi
Format : AVI
Format/Info : Audio Video Interleave
Format profile : OpenDML
File size : 2.05 GiB
Duration : 2h 25mn
Overall bit rate : 2 027 Kbps
Writing application : VirtualDubMod 1.5.10.2 (build 2540/release)
Writing library : VirtualDubMod build 2540/release
Video
ID : 0
Format : MPEG-4 Visual
Format profile : AdvancedSimple@L5
Format settings, BVOP : Yes
Format settings, QPel : No
Format settings, GMC : No warppoints
Format settings, Matrix : Custom
Codec ID : XVID
Codec ID/Hint : XviD
Duration : 2h 25mn
Bit rate : 1 566 Kbps
Width : 720 pixels
Height : 304 pixels
Display aspect ratio : 2.35
Frame rate : 24.000 fps
Resolution : 24 bits
Colorimetry : 4:2:0
Scan type : Progressive
Bits/(Pixel*Frame) : 0.298
Stream size : 1.59 GiB (77%)
Writing library : XviD 1.2.1 (UTC 2008-12-04)
Audio
ID : 1
Format : AC-3
Format/Info : Audio Coding 3
Codec ID : 2000
Duration : 2h 25mn
Bit rate mode : Constant
Bit rate : 448 Kbps
Channel(s) : 6 channels
Channel positions : Front: L C R, Surround: L R, LFE
Sampling rate : 48.0 KHz
Stream size : 465 MiB (22%)
Alignment : Split accross interleaves
Interleave, duration : 42 ms (1.00 video frame)
Interleave, preload duration : 500 ms
Скриншот c названием фильма Скриншоты
Скачать

Скачать торрент! Королева / Queen (Викас Бехл / Vikas Bahl) [2014, Индия, Драма, комедия, HDRip] VO (Pashaup) + Sub Rus (на песни)

Как скачивать? · Что такое торрент? · Рейтинг и ограничения

Сайт не распространяет и не хранит электронные версии произведений, а лишь предоставляет доступ к создаваемому пользователями каталогу ссылок на торрент-файлы, которые содержат только списки хеш-сумм

[Профиль] [ЛС]
Показать сообщения:    
Ответить на тему

Текущее время: Сегодня 12:35

Часовой пояс: GMT + 4



Вы не можете начинать темы
Вы не можете отвечать на сообщения
Вы не можете редактировать свои сообщения
Вы не можете удалять свои сообщения
Вы не можете голосовать в опросах
Вы не можете прикреплять файлы к сообщениям
Вы не можете скачивать файлы