День и ночь / Raat Aur Din (Сатьян Босе / Satyen Bose) [1967, Индия, Триллер, детектив, WEBRip] VO (Nastia) + Original

Ответить на тему
 
Автор Сообщение

user ®

Стаж: 12 лет

Сообщений: 15092

Пост Пост: #1 от 08-Окт-2014 14:45

[Цитировать]

День и ночь / Raat Aur Din--
Страна: Индия
Жанр: Триллер, детектив
Год выпуска: 1967
Продолжительность: 02:15:03
Перевод: Одноголосый закадровый
Перевод субтитров: larisa_k
Озвучка: Nastia
Cубтитры: нет
Оригинальная аудиодорожка: хинди--Режиссер: Сатьян Босе / Satyen Bose--В ролях: Наргис, Прадип Кумар, Фероз Кхан, Анвар Хуссэйн, К. Х. Сингх, Лаксми Чхая, С.Н. Банерджи, Лила Мишра, Ануп Кумар, Хариндранатх Чаттопадхяй, Сулочана Чаттерджи, Ранджана Кадам, Парасрам, Брахм Бхардвадж, Гулам Сабир, Абу Бакер, Вина Кумари, Руби Майер, Баби Фарида, Нур Джехан, Мулчанд, Равикант--Описание: Молодой бизнесмен Пратам по дороге в Шимлу вынужден просить помощи в ближайшем доме из-за поломки своей машины. Он встречает дочь хозяина дома по имени Варуна. Влюбившись в нее он на ней женится. Но вскоре после свадьбы начинает замечать за молодой женой странности. Кратковременные потери памяти, сильные головные боли. Но он не придает этому значения до тех пор пока однажды ночью, не обнаруживает что жены нет в постели. Тогда он отправляется на ее розыски и находит свою жену в клубе, в компании незнакомого молодого мужчины...--Доп. информация: За роль в этом фильме Наргис получила две награды:
Национальную кинематографическую премию за лучшую женскую роль и Filmfare как лучшая актриса.
Фильм имел большой успех хотя критики и пресса критиковали Наргис за участие в столь, на их взгляд, непристойном фильме.--Благодарность:
larisa_k, за перевод субтитров и за предоставленные материалы
Nastia, за озвучку фильма-Переработка рипа и сведение звука: pca1962--Сэмпл: http://multi-up.com/1004419
Качество видео: WEBRip
Формат видео: AVI
Видео: XviD, 720x544, 25.00 fps, 1758 kbps
Аудио: AC3, 48 kHz, 2.0 (stereo), 192 kbps (русский)
Аудио 2: AC3, 48 kHz, 2.0 (stereo), 224 kbps (хинди)-
-
MediaInfo
=== Общие ===
Полное имя : Den.i.Noch.1967.WEBRip.XviD.pca1962.avi
Формат : AVI
Описание формата : Audio Video Interleave
Профиль формата : OpenDML
Размер файла : 2.07 Гб
Длительность : 2ч 15мин
Общий битрейт : 2 193 кбит/сек
Название фильма : День и ночь.1967.
Director : pca1962
Жанр / стиль : Mystery, Thriller
Програмное обеспечение : VirtualDubMod 1.5.10.2 (build 2540/release)
Original source form/Name : Movie
Комментарий : перевод суб. larisa_k
=== Видео ===
ID (Идентификатор) : 0
Формат : MPEG-4 Visual
Профиль формата : Advanced Simple@L5
Параметр 'BVOP' : 1
Параметр 'QPel' : Нет
Параметр 'GMC' : No warppoints
Параметр 'Matrix' : Default (H.263)
Идентификатор кодека : XVID
Подпись кодека : XviD
Длительность : 2ч 15мин
Битрейт : 1758 кбит/сек
Ширина кадра : 720 пикселей
Высота кадра : 544 пикселей
Соотношение сторон : 4:3
Частота кадров : 25.000 кадров/сек
Цветовое пространство : YUV
Субдискретизация насыщенности : 4:2:0
Глубина (разрядность) : 8 bits
Тип развертки : Прогрессивная
Режим сжатия : С потерями
Бит/(пиксель*кадр) : 0.180
Размер потока : 1.66 Гб (80%)
Кодирующая библиотека : XviD 1.2.1 (UTC 2008-12-04)
=== Аудио 1 ===
ID (Идентификатор) : 1
Формат : AC-3
Описание формата : Audio Coding 3
Mode extension : CM (complete main)
Идентификатор кодека : 2000
Длительность : 2ч 15мин
Тип битрейта : Постоянный
Битрейт : 192 кбит/сек
Канал(ы) : 2 каналов
Расположение каналов : Front: L R
Частота дискретизации : 48.0 кГц
Глубина (разрядность) : 16 bits
Режим сжатия : С потерями
Размер потока : 185 Мб (9%)
Расположение потока : Split accross interleaves
Период чередования : 40 мс (1.00 video frame)
Предварительная загрузка : 500 мс
=== Аудио 2 ===
ID (Идентификатор) : 2
Формат : AC-3
Описание формата : Audio Coding 3
Mode extension : CM (complete main)
Идентификатор кодека : 2000
Длительность : 2ч 15мин
Тип битрейта : Постоянный
Битрейт : 224 кбит/сек
Канал(ы) : 2 каналов
Расположение каналов : Front: L R
Частота дискретизации : 48.0 кГц
Глубина (разрядность) : 16 bits
Режим сжатия : С потерями
Размер потока : 216 Мб (10%)
Расположение потока : Split accross interleaves
Период чередования : 40 мс (1.00 video frame)
Предварительная загрузка : 500 мс

-
-Скриншот c названием фильма Скриншоты
Скачать

Скачать торрент! День и ночь / Raat Aur Din (Сатьян Босе / Satyen Bose) [1967, Индия, Триллер, детектив, WEBRip] VO (Nastia) + Original

Как скачивать? · Что такое торрент? · Рейтинг и ограничения

Сайт не распространяет и не хранит электронные версии произведений, а лишь предоставляет доступ к создаваемому пользователями каталогу ссылок на торрент-файлы, которые содержат только списки хеш-сумм

[Профиль] [ЛС]
Показать сообщения:    
Ответить на тему

Текущее время: Сегодня 18:22

Часовой пояс: GMT + 4



Вы не можете начинать темы
Вы не можете отвечать на сообщения
Вы не можете редактировать свои сообщения
Вы не можете удалять свои сообщения
Вы не можете голосовать в опросах
Вы не можете прикреплять файлы к сообщениям
Вы не можете скачивать файлы