Спящая красавица / Sleeping Beauty (Клайд Джероними / Clyde Geronimi) [1959, фэнтези, мелодрама, мюзикл, семейный, мультфильм, BDRip] Dub + original Eng

Ответить на тему
 
Автор Сообщение

user ®

Стаж: 13 лет

Сообщений: 15041

Пост Пост: #1 от 07-Окт-2014 10:25

[Цитировать]

Спящая красавица / Sleeping Beauty
«Now the magic moment! Full-length feature fantasy - Beautiful beyond belief»
- Страна: США
Жанр: фэнтези, мелодрама, мюзикл, семейный, мультфильм
Продолжительность: 01:15:11
Год выпуска: 1959
Перевод: Профессиональный (дублированный)
Русские субтитры: нет-Режиссёр: Клайд Джероними / Clyde Geronimi
Сценарий: Эрдман Пеннер / Erdman Penner, Шарль Перро / Charles Perrault
Художники: Кен Андерсон / Ken Anderson, Дон ДаГради / Don DaGradi
Монтажеры: Рой М. Брюэр мл. / Roy M. Brewer Jr., Дональд Холлидэй / Donald Halliday-Роли озвучивали:
Мэри Коста (Princess Aurora), Билл Ширли (Prince Phillip), Элинор Одли (Maleficent), Верна Фелтон (Flora / Leah), Барбара Ладди (Merryweather), Барбара Джо Аллен (Fauna), Тейлор Холмс (Stefan), Билл Томпсон (Hubert), Кэнди Кандидо (Maleficent's Goon).-Бюджет: $6 000 000
Сборы в США: $51 600 000-Мировая премьера: 29 января 1959
Релиз на DVD: 13 ноября 2008, «Buena Vista/Walt Disney»
Релиз на Blu-Ray: 7 октября 2014, «Уолт Дисней Компани СНГ»
-Описание:
Давным-давно в далёкой стране жили король с королевой. Когда у них родилась долгожданная дочь Аврора, в королевстве был устроен большой праздник, чтобы все могли поприветствовать малютку. На бал пригласили и трёх добрых фей — Флору, Фауну и Хорошую Погоду, а про злую колдунью Мэлифисент забыли.
Флора и Фауна подарили маленькой Авроре красоту и изящество, но тут как гром среди ясного неба появилась злая колдунья и прокляла принцессу — в день 16-летия она уколет свой палец заколдованным веретеном и умрёт.
Колдовство оказалось таким сильным, что фея Хорошей Погоды не смогла разрушить его чары, но она всё-таки сумела помочь, пообещав, что принцесса не умрёт, она всего лишь уснёт вместе со всеми обитателями замка и проснётся только от первого поцелуя прекрасного принца, ведь любви подвластно всё...-Это последний мультфильм из серии сказок, продюссером которого был сам Дисней. Мультфильм по сказке Шарля Перро, содержание, которой вам , конечно, знакомо. За основу музыки взят одноимённый балет Чайковского. Прекрасные рисунки, музыка и сюжет сказки не оставит равнодушным вашего ребёнка.
«Спящая красавица» стала самым дорогим и самым трудоемким из диснеевских проектов. Более 300 художников в течение шести лет работали над постановкой, израсходовав на нее шесть миллионов долларов, что само по себе уже было сенсацией. В истории почтенной империи Диснея этот фильм примечателен еще одной особенностью: сказочный замок спящей красавицы превратился в фирменную эмблему студии, и, воплощенный в камне, стал тематическим центром всех «Диснейлендов».
-Рейтинг
kinopoisk.ru: 7.983 (20 828)
imdb.com: 7.40 (72 162)
MPAA: G - Нет возрастных ограничений-Качество: BDRip | исх. ☞ «crazy_gringo / / [Diamond Edition] Blu-ray EUR. 1080p. AVC DD5.1»
Формат: AVI ///СОВМЕСТИМО С БЫТОВЫМИ ПЛЕЕРАМИ/// → //SAMPLE//
Видео: 704x272 (2.59:1), 23.976 fps, XviD build 73 ~1860 kbps avg, 0.41 bit/pixel
Аудио#1: 48.0 kHz, AC3 Dolby Digital, 3/2 (L,C,R,l,r) + LFE ch, ~448.00 kbps avg | DUB
Аудио#2: 48.0 kHz, AC3 Dolby Digital, 3/2 (L,C,R,l,r) + LFE ch, ~448.00 kbps avg | ENG
Размер: 1490.20 Mb (1/3 DVDR)
Субтитры: «отсутствуют»
-Подробные технические данные
ОбщееПолное имя : A:\Фильмы\Sleeping Beauty.1959.BDRip.XviD.1,46Gb.AC3.aviФормат : AVIФормат/Информация : Audio Video InterleaveРазмер файла : 1,46 ГбайтПродолжительность : 1 ч. 15 м.Общий поток : 2772 Кбит/секПрограмма кодирования : VirtualDubMod 1.5.10.3 | www.virtualdub-fr.org || (build 2550/release)Библиотека кодирования : VirtualDubMod build 2550/release
ВидеоИдентификатор : 0Формат : MPEG-4 VisualПрофиль формата : Advanced Simple@L5Параметр BVOP формата : 1Параметр QPel формата : НетПараметр GMC формата : Без точки переходаПараметр матрицы формата : ВыборочнаяИдентификатор кодека : XVIDИдентификатор кодека/Подсказка : XviDПродолжительность : 1 ч. 15 м.Битрейт : 1862 Кбит/секШирина : 704 пикселяВысота : 272 пикселяСоотношение сторон : 2.59:1Частота кадров : 23,976 кадра/секЦветовое пространство : YUVСубдискретизация насыщенности : 4:2:0Битовая глубина : 8 битТип развёртки : ПрогрессивнаяМетод сжатия : С потерямиБит/(Пиксели*Кадры) : 0.406Размер потока : 1001 Мбайт (67%)Библиотека кодирования : XviD 73
Аудио #1Идентификатор : 1Формат : AC-3Формат/Информация : Audio Coding 3Расширение режима : CM (complete main)Параметр Endianness формата : BigИдентификатор кодека : 2000Продолжительность : 1 ч. 15 м.Вид битрейта : ПостоянныйБитрейт : 448 Кбит/секКаналы : 6 каналовРасположение каналов : Front: L C R, Side: L R, LFEЧастота : 48,0 КГцБитовая глубина : 16 битМетод сжатия : С потерямиРазмер потока : 241 Мбайт (16%)Выравнивание : Соединение по промежуткамПродолжительность промежутка : 42 мс. (1,00 видеокадр)Время предзагрузки промежутка : 512 мс.
Аудио #2Идентификатор : 2Формат : AC-3Формат/Информация : Audio Coding 3Расширение режима : CM (complete main)Параметр Endianness формата : BigИдентификатор кодека : 2000Продолжительность : 1 ч. 15 м.Вид битрейта : ПостоянныйБитрейт : 448 Кбит/секКаналы : 6 каналовРасположение каналов : Front: L C R, Side: L R, LFEЧастота : 48,0 КГцБитовая глубина : 16 битМетод сжатия : С потерямиРазмер потока : 241 Мбайт (16%)Выравнивание : Разделение по промежуткамПродолжительность промежутка : 42 мс. (1,00 видеокадр)Время предзагрузки промежутка : 500 мс.
Comparison
[url=http://***/forum/viewtopic.php?t=2206546]http://***/forum/viewtopic.php?t=2206546[/url]
http://screenshotcomparison.com/comparison/94606/picture:0
http://screenshotcomparison.com/comparison/94607/picture:0
Скриншоты
Скачать

Скачать торрент! Спящая красавица / Sleeping Beauty (Клайд Джероними / Clyde Geronimi) [1959, фэнтези, мелодрама, мюзикл, семейный, мультфильм, BDRip] Dub + original Eng

Как скачивать? · Что такое торрент? · Рейтинг и ограничения

Сайт не распространяет и не хранит электронные версии произведений, а лишь предоставляет доступ к создаваемому пользователями каталогу ссылок на торрент-файлы, которые содержат только списки хеш-сумм

[Профиль] [ЛС]
Показать сообщения:    
Ответить на тему

Текущее время: Сегодня 00:44

Часовой пояс: GMT + 4



Вы не можете начинать темы
Вы не можете отвечать на сообщения
Вы не можете редактировать свои сообщения
Вы не можете удалять свои сообщения
Вы не можете голосовать в опросах
Вы не можете прикреплять файлы к сообщениям
Вы не можете скачивать файлы