Всё и сразу (Роман Каримов) [2014, Россия, комедия, криминал, WEB-DL 720p] - Original Rus -

Ответить на тему
 
Автор Сообщение

user ®

Стаж: 7 лет 7 месяцев

Сообщений: 20008

Пост Пост: #1 от 07-Окт-2014 10:25

[Цитировать]

-- Всё и сразу-- Страна: Россия
Жанр: комедия, криминал
Год выпуска: 2014
Продолжительность: 01:33:00-Перевод: Не требуется
Cубтитры: нет
Оригинальная аудиодорожка: русский-Режиссер: Роман Каримов
В ролях: Никита Ост, Антон Шурцов, Александр Паль, Юлия Хлынина, Артем Костюнёв, Андрей Муравьёв, Александр Шаляпин, Андрей Галактионов, Игорь Тарасевич, Ольга Возовая и др.-Описание: Тима и Дэн — друзья-неудачники из провинциального городка. Учеба позади, работать не тянет, девушек нет. На пути к мечте (выбиться в люди) и в надежде получить всё и сразу (без особого напряга) парни берутся выполнить задание местного бандюка и отправляются на дело, прихватив с собой автослесаря Жору, такого же полного лузера.
На кону внушительная сумма, главное — не облажаться и чётко инсценировать ограбление своего же, подставного наркокурьера. Но вот засада: роль курьера случайно достаётся честному дембелю Ване, который оказывается не в курсе схем и обещаний. И теперь в водовороте погонь, потасовок и перестрелок всем четверым нужно по-настоящему напрячься, чтобы грамотно разрулить ситуацию. И получить ВСЁ и СРАЗУ.
-Мировая премьера: 05 июня 2014 г. | Премьера Россия: 05 июня 2014 г.Бюджет: $750 000- -Тип релиза: WEB-DL 720p
Контейнер: MKV
Видео: 1280x720 (16:9), 24,000 fps, AVC ~4080 kbps avg, 0.184 bit/pixel
Аудио: Russian 48 kHz, Audio Coding 3, 3/2 (L,C,R,l,r) + LFE ch, ~384.00 kbps avg
MediaInfo
Общее
Уникальный идентификатор                 : 214051109516780259130516502548303232365 (0xA108BE80458181A48832D8A56DDABD6D)
Полное имя                               : D:\Video\mkv\Vse.i.Srazu.2014.720p.mkv
Формат                                   : Matroska
Версия формата                           : Version 4 / Version 2
Размер файла                             : 3,02 Гбайт
Продолжительность                        : 1 ч. 34 м.
Общий поток                              : 4554 Кбит/сек
Дата кодирования                         : UTC 2014-07-04 18:48:57
Программа кодирования                    : mkvmerge v6.9.1 ('Blue Panther') 64bit built on Apr 18 2014 18:23:38
Библиотека кодирования                   : libebml v1.3.0 + libmatroska v1.4.1
Видео
Идентификатор                            : 1
Формат                                   : AVC
Формат/Информация                        : Advanced Video Codec
Профиль формата                          : High@L3.1
Параметр CABAC формата                   : Нет
Параметр ReFrames формата                : 2 кадра
Идентификатор кодека                     : V_MPEG4/ISO/AVC
Продолжительность                        : 1 ч. 34 м.
Битрейт                                  : 4080 Кбит/сек
Ширина                                   : 1280 пикселей
Высота                                   : 720 пикселей
Соотношение сторон                       : 16:9
Режим частоты кадров                     : Постоянный
Частота кадров                           : 24,000 кадра/сек
Цветовое пространство                    : YUV
Субдискретизация насыщенности            : 4:2:0
Битовая глубина                          : 8 бит
Тип развёртки                            : Прогрессивная
Бит/(Пиксели*Кадры)                      : 0.184
Размер потока                            : 2,70 Гбайт (90%)
Язык                                     : English
Default                                  : Да
Forced                                   : Нет
Основные цвета                           : BT.709
Характеристики трансфера                 : BT.709
Коэффициенты матрицы                     : BT.709
Аудио
Идентификатор                            : 2
Формат                                   : AC-3
Формат/Информация                        : Audio Coding 3
Расширение режима                        : CM (complete main)
Параметр Endianness формата              : Big
Идентификатор кодека                     : A_AC3
Продолжительность                        : 1 ч. 34 м.
Вид битрейта                             : Постоянный
Битрейт                                  : 384 Кбит/сек
Каналы                                   : 6 каналов
Расположение каналов                     : Front: L C R, Side: L R, LFE
Частота                                  : 48,0 КГц
Битовая глубина                          : 16 бит
Метод сжатия                             : С потерями
Размер потока                            : 261 Мбайт (8%)
Язык                                     : Russian
Default                                  : Да
Forced                                   : Нет
Скриншоты
Скачать

Скачать торрент!

Как скачивать? · Что такое торрент? · Рейтинг и ограничения

Сайт не распространяет и не хранит электронные версии произведений, а лишь предоставляет доступ к создаваемому пользователями каталогу ссылок на торрент-файлы, которые содержат только списки хеш-сумм

[Профиль] [ЛС]
Показать сообщения:    
Ответить на тему

Текущее время: Сегодня 22:24

Часовой пояс: GMT + 4



Вы не можете начинать темы
Вы не можете отвечать на сообщения
Вы не можете редактировать свои сообщения
Вы не можете удалять свои сообщения
Вы не можете голосовать в опросах
Вы не можете прикреплять файлы к сообщениям
Вы не можете скачивать файлы