Маленький домик / The Little House (Ёдзи Ямада / Yoji Yamada) [2013, Япония, Драма, мелодрама, DVDRip] VO D.I.M.

Ответить на тему
 
Автор Сообщение

user ®

Стаж: 13 лет

Сообщений: 15071

Пост Пост: #1 от 05-Окт-2014 15:30

[Цитировать]

Маленький домик / The Little House
Страна: Япония
Жанр: Драма, мелодрама
Год выпуска: 2013
Продолжительность: 2:16:20
Перевод: Одноголосый закадровый D.I.M.
Cубтитры: нет
Режиссер: Ёдзи Ямада / Yoji Yamada
В ролях: Сатоси Цумабуки / Satoshi Tsumabuki
Такако Мацу / Takako Matsu
Тиеко Вайшо / Chieko Baisho
Такатаро Катаока / Takataro Kataoka
Хару Куроки / Haru Kuroki
Хидетака Ёсиока / Hidetaka Yoshioka
Описание:
До Второй мировой войны Таки начала работать горничной
в маленьком домике с красной треугольной крышей в Токио,
приехав из далёкой северной деревни.
Семья, которая жила в этом маленьком домике состояла
из трёх человек: муж, который работал в компании по производству игрушек,
его красавица жена Токико и их пятилетний сын Кёити. Таки обожает свою хозяйку Токико.
Муж нанимает на работу молодого выпускника художественной школы по имени Сёдзи Итакура.
Токико и Таки, обе взволнованы появлением этого человека у них дома...
Это сто десятый фильм с моим переводом и озвучкой,
выложенный здесь.
А здесь все мои раздачи [url=http://***/forum/tracker.php?rid=1940569#results]http://***/forum/tracker.php?rid=1940569#results[/url].
Любители душевного кино могут найти для себя что-то интересное.
Сэмпл: http://multi-up.com/1003923
Качество видео: DVDRip
Формат видео: AVI
Видео: 720*352 (16:9), 23,976 fps, MPEG-4 Visual (XviD) ~ 583 kbps avg, 0.108 bit/pixel
Аудио: MPEG Audio Layer 3, 48000Hz, stereo, 128kbps
MediaInfo
Общее
Полное имя : E:\TORENT\РАЗДАЧИ (РИПЫ)\LITTLE HOUSE.avi
Формат : AVI
Формат/Информация : Audio Video Interleave
Размер файла : 702 Мбайт
Продолжительность : 2 ч. 16 м.
Общий поток : 720 Кбит/сек
Программа кодирования : VirtualDubModRus 1.5.10.2 (build 2542/release)
Библиотека кодирования : VirtualDubMod build 2542/release
Видео
Идентификатор : 0
Формат : MPEG-4 Visual
Профиль формата : Advanced Simple@L5
Параметр BVOP формата : 1
Параметр QPel формата : Нет
Параметр GMC формата : Без точки перехода
Параметр матрицы формата : Выборочная
Идентификатор кодека : XVID
Идентификатор кодека/Подсказка : XviD
Продолжительность : 2 ч. 16 м.
Битрейт : 583 Кбит/сек
Ширина : 640 пикс.
Высота : 352 пикс.
Соотношение сторон : 16:9
Частота кадров : 23,976 кадр/сек
Цветовое пространство : YUV
Подвыборка цветности : 4:2:0
Битовая глубина : 8 бит
Тип развёртки : Прогрессивная
Метод сжатия : С потерями
Бит/(Пиксели*Кадры) : 0.108
Размер потока : 568 Мбайт (81%)
Библиотека кодирования : XviD 63
Аудио
Идентификатор : 1
Формат : MPEG Audio
Версия формата : Version 1
Профиль формата : Layer 3
Режим : Joint stereo
Идентификатор кодека : 55
Идентификатор кодека/Подсказка : MP3
Продолжительность : 2 ч. 16 м.
Вид битрейта : Постоянный
Битрейт : 128 Кбит/сек
Канал(ы) : 2 канала(ов)
Частота : 48,0 КГц
Метод сжатия : С потерями
Размер потока : 125 Мбайт (18%)
Выравнивание : Соединение по промежуткам
Продолжительность промежутка : 42 мс. (1,00 видеокадр)
Время предзагрузки промежутка : 504 ms
Библиотека кодирования : LAME3.98.2
Скриншот c названием фильма Скриншоты
Скачать

Скачать торрент! Маленький домик / The Little House (Ёдзи Ямада / Yoji Yamada) [2013, Япония, Драма, мелодрама, DVDRip] VO D.I.M.

Как скачивать? · Что такое торрент? · Рейтинг и ограничения

Сайт не распространяет и не хранит электронные версии произведений, а лишь предоставляет доступ к создаваемому пользователями каталогу ссылок на торрент-файлы, которые содержат только списки хеш-сумм

[Профиль] [ЛС]
Показать сообщения:    
Ответить на тему

Текущее время: Сегодня 18:08

Часовой пояс: GMT + 4



Вы не можете начинать темы
Вы не можете отвечать на сообщения
Вы не можете редактировать свои сообщения
Вы не можете удалять свои сообщения
Вы не можете голосовать в опросах
Вы не можете прикреплять файлы к сообщениям
Вы не можете скачивать файлы