Убью тебя, потом себя / Nee Ko Njaa Cha (Гириш / Gireesh) [2013, Индия, Комедия, мелодрама, DVDRip] + Sub Rus

Ответить на тему
 
Автор Сообщение

user ®

Стаж: 12 лет

Сообщений: 15092

Пост Пост: #1 от 27-Сен-2014 18:55

[Цитировать]

Убью тебя, потом себя / Nee Ko Njaa Cha
Страна: Индия
Жанр: Комедия, мелодрама
Год выпуска: 2013
Продолжительность: 01:53:00
Перевод: Субтитры
Cубтитры: русские
Перевод и редакция субтитров: Net (Prabhu)
Оригинальная аудиодорожка: Малаялам
Режиссер: Гириш / Gireesh
В ролях: Санни Уэйн, Санджу, Правин Анидил, Рохини Марьям Идикула, Пуджита Менон, Сиджа Роуз, Парвати Наир
Описание: Жили-были три друга. У Джо своё шоу и роман с ведущей этого шоу. Рошан - пластический хирург, циник и казанова. Абу мечтает из помощников режиссёра выбраться в режиссёры и предлагает друзьям вложиться в его фильм, дабы возродить малаяльскую индустрию кино. Для этого они едут на Гоа... А вот что произойдёт дальше... Смотрите фильм.
Сэмпл: http://multi-up.com/1001935
Качество видео: DVDRip
Формат видео: AVI
Видео: XviD, 608x256, 23.976 fps, 999 kbps
Аудио: MP3, 32 kHz, 2.0 (stereo), 80 kbps
Формат субтитров: hardsub (неотключаемые)
MediaInfo
Format : AVI
Format/Info : Audio Video Interleave
File size : 880 MiB
Duration : 1h 53mn
Overall bit rate : 1 088 Kbps
Writing application : VirtualDubMod 1.5.10.2 (build 2542/release)
Writing library : VirtualDubMod build 2542/release
Video #0
ID : 0
Format : MPEG-4 Visual
Format profile : Advanced Simple@L5
Format settings, BVOP : 2
Format settings, QPel : No
Format settings, GMC : No warppoints
Format settings, Matrix : Default (H.263)
Muxing mode : Packed bitstream
Codec ID : XVID
Codec ID/Hint : XviD
Duration : 1h 53mn
Bit rate : 999 Kbps
Width : 608 pixels
Height : 256 pixels
Display aspect ratio : 2.40:1
Frame rate : 23.976 fps
Color space : YUV
Chroma subsampling : 4:2:0
Bit depth : 8 bits
Scan type : Progressive
Compression mode : Lossy
Bits/(Pixel*Frame) : 0.268
Stream size : 808 MiB (92%)
Writing library : XviD 63
Audio #1
ID : 1
Format : MPEG Audio
Format version : Version 1
Format profile : Layer 3
Mode : Joint stereo
Mode extension : MS Stereo
Codec ID : 55
Codec ID/Hint : MP3
Duration : 1h 53mn
Bit rate mode : Constant
Bit rate : 80.0 Kbps
Channel(s) : 2 channels
Sampling rate : 32.0 KHz
Compression mode : Lossy
Stream size : 64.7 MiB (7%)
Alignment : Aligned on interleaves
Interleave, duration : 42 ms (1.00 video frame)
Interleave, preload duration : 504 ms
Writing library : LAME3.99r
Encoding settings : -m j -V 4 -q 2 -lowpass 13.5 -b 80
Скриншот c названием фильма Скриншоты
Скачать

Скачать торрент! Убью тебя, потом себя / Nee Ko Njaa Cha (Гириш / Gireesh) [2013, Индия, Комедия, мелодрама, DVDRip] + Sub Rus

Как скачивать? · Что такое торрент? · Рейтинг и ограничения

Сайт не распространяет и не хранит электронные версии произведений, а лишь предоставляет доступ к создаваемому пользователями каталогу ссылок на торрент-файлы, которые содержат только списки хеш-сумм

[Профиль] [ЛС]
Показать сообщения:    
Ответить на тему

Текущее время: Сегодня 05:54

Часовой пояс: GMT + 4



Вы не можете начинать темы
Вы не можете отвечать на сообщения
Вы не можете редактировать свои сообщения
Вы не можете удалять свои сообщения
Вы не можете голосовать в опросах
Вы не можете прикреплять файлы к сообщениям
Вы не можете скачивать файлы