Борьба / Sangram (Гьян Мукерджи / Gyan Mukherjee) [1950, Индия, Драма, DVDRip] VO (Nastia) + Original

Ответить на тему
 
Автор Сообщение

user ®

Стаж: 12 лет

Сообщений: 15092

Пост Пост: #1 от 16-Сен-2014 03:35

[Цитировать]

Борьба / Sangram--
Страна: Индия
Жанр: Драма
Год выпуска: 1950
Продолжительность: 02:18:57
Перевод: Одноголосый закадровый
Перевод субтитров: larisa_k
Озвучка: Nastia
Cубтитры: нет
Оригинальная аудиодорожка: хинди--Режиссер: Гьян Мукерджи / Gyan Mukherjee--В ролях: Ашок Кумар, Налини Джаявант, Наваб, Бина Паул, Кумуд, Саджан, Тивари, Шаши Капур--Описание: Фильм о судьбе сына полицейского. Не смотря на свою большую любовь к сыну несчастный отец не смог уберечь его от дурного пути и сын стал преступником.--Доп информация: Роль главного героя в детстве сыграл совсем еще юный Шаши Капур. Этот фильм одна из первых индийских кинолент в которой была раскрыта так ставшая популярной в будущем тема "Отец блюститель закона и сын-преступник". В начале 50-х годов Ашок Кумар снялся в нескольких фильмах где он играл, хотя и отрицательную, но главную роль. Он придал этим ролям особенный шарм и они принесли ему успех.--Благодарность:
larisa_k, за перевод субтитров и предоставленные материалы
Nastia, за озвучку фильма-Cведение звука: pca1962--Сэмпл: http://multi-up.com/999110
Качество видео: DVDRip
Формат видео: AVI
Видео: XviD, 560x416, 23.976 fps, 1452 kbps
Аудио: AC3, 48 kHz, 2.0 (stereo), 192 kbps (русский)
Аудио 2: MP3, 44.1 kHz, 2.0 (stereo), 128 kbps (хинди)-
-
MediaInfo
=== Общие ===
Полное имя : Borba.1950.DVDRip.XviD.pca1962.avi
Формат : AVI
Описание формата : Audio Video Interleave
Размер файла : 1.73 Гб
Длительность : 2ч 18мин
Общий битрейт : 1 787 кбит/сек
Название фильма : Borba.1950
Director : pca1962
Жанр / стиль : Drama
Програмное обеспечение : VirtualDubMod 1.5.10.2 (build 2540/release)
Original source form/Name : Movie
Комментарий : перевод: larisa_k
=== Видео ===
ID (Идентификатор) : 0
Формат : MPEG-4 Visual
Профиль формата : Advanced Simple@L5
Параметр 'BVOP' : 2
Параметр 'QPel' : Нет
Параметр 'GMC' : No warppoints
Параметр 'Matrix' : Default (H.263)
Идентификатор кодека : XVID
Подпись кодека : XviD
Длительность : 2ч 18мин
Битрейт : 1 452 кбит/сек
Ширина кадра : 560 пикселей
Высота кадра : 416 пикселей
Соотношение сторон : 4:3
Частота кадров : 23.976 кадров/сек
Цветовое пространство : YUV
Субдискретизация насыщенности : 4:2:0
Глубина (разрядность) : 8 bits
Тип развертки : Прогрессивная
Режим сжатия : С потерями
Бит/(пиксель*кадр) : 0.260
Размер потока : 1.41 Гб (81%)
Кодирующая библиотека : XviD 1.2.1 (UTC 2008-12-04)
=== Аудио 1 ===
ID (Идентификатор) : 1
Формат : AC-3
Описание формата : Audio Coding 3
Mode extension : CM (complete main)
Идентификатор кодека : 2000
Длительность : 2ч 18мин
Тип битрейта : Постоянный
Битрейт : 192 кбит/сек
Канал(ы) : 2 каналов
Расположение каналов : Front: L R
Частота дискретизации : 48.0 кГц
Глубина (разрядность) : 16 bits
Режим сжатия : С потерями
Размер потока : 191 Мб (11%)
Расположение потока : Split accross interleaves
Период чередования : 42 мс (1.00 video frame)
Предварительная загрузка : 500 мс
=== Аудио 2 ===
ID (Идентификатор) : 2
Формат : MPEG Audio
Версия формата : Version 1
Профиль формата : Layer 3
Режим : Joint stereo
Mode extension : MS Stereo
Идентификатор кодека : 55
Подпись кодека : MP3
Длительность : 2ч 18мин
Тип битрейта : Постоянный
Битрейт : 128 кбит/сек
Канал(ы) : 2 каналов
Частота дискретизации : 44.1 кГц
Режим сжатия : С потерями
Размер потока : 127 Мб (7%)
Расположение потока : Split accross interleaves
Период чередования : 42 мс (1.00 video frame)
Предварительная загрузка : 500 мс
Кодирующая библиотека : LAME3.98.4ЄЄЄЄЄ6оС±

-
-Скриншот c названием фильма Скриншоты
Скачать

Скачать торрент! Борьба / Sangram (Гьян Мукерджи / Gyan Mukherjee) [1950, Индия, Драма, DVDRip] VO (Nastia) + Original

Как скачивать? · Что такое торрент? · Рейтинг и ограничения

Сайт не распространяет и не хранит электронные версии произведений, а лишь предоставляет доступ к создаваемому пользователями каталогу ссылок на торрент-файлы, которые содержат только списки хеш-сумм

[Профиль] [ЛС]
Показать сообщения:    
Ответить на тему

Текущее время: Сегодня 19:20

Часовой пояс: GMT + 4



Вы не можете начинать темы
Вы не можете отвечать на сообщения
Вы не можете редактировать свои сообщения
Вы не можете удалять свои сообщения
Вы не можете голосовать в опросах
Вы не можете прикреплять файлы к сообщениям
Вы не можете скачивать файлы