Рыба-меч среди волн / Mosayile Kuthira Meenukal (Аджит Пиллаи / Ajith Pillai) [2014, Индия, Приключения, мелодрама, DVDRip] + Sub Rus

Ответить на тему
 
Автор Сообщение

user ®

Стаж: 12 лет

Сообщений: 15092

Пост Пост: #1 от 14-Сен-2014 23:50

[Цитировать]

Рыба-меч среди волн / Mosayile Kuthira Meenukal
Страна: Индия
Язык: Малаялам
Жанр: Приключения, мелодрама
Год выпуска: 2014
Продолжительность: 02:08:58
Перевод: Субтитры
Cубтитры: русские
Перевод и редакция субтитров: Net (Prabhu)
Риппер: Randy23
Релиз группы BwTorrents
Режиссер: Аджит Пиллаи / Ajith Pillai
В ролях: Санни Уэйн, Асиф Али, Свати Редди, Джанани Айер, Нишант Сагар, Недумуди Вену
Описание: Это история одного человека - Али(Санни Уэйн)... В жизнь которого случайно входит Иса(Свати Редди). Так получилось, что на пути Али к Исе его сопровождает совершенно случайный парень - Алекс(Асиф Али). Богатый раздолбай, который в жизни этой ничего не ценит и по глупости оказывается за решёткой. Но почему он стал таким? Об этом он сам вам расскажет. Вы унесётесь в другой мир...Где-то на земле есть ещё такая нетронутая неописуемая красота...
Сэмпл: http://multi-up.com/998899
Качество видео: DVDRip
Формат видео: AVI
Видео: XviD, 720x304, 23.976 fps, 1151 kbps
Аудио: AC3,48 kHz, 5.1 (6 ch), 448 kbps
Формат субтитров: hardsub (неотключаемые)
MediaInfo
Format : AVI
Format/Info : Audio Video Interleave
File size : 1.45 GiB
Duration : 2h 8mn
Overall bit rate : 1 608 Kbps
Writing application : VirtualDubMod 1.5.10.2 (build 2542/release)
Writing library : VirtualDubMod build 2542/release
Video #0
ID : 0
Format : MPEG-4 Visual
Format profile : Advanced Simple@L5
Format settings, BVOP : 2
Format settings, QPel : No
Format settings, GMC : No warppoints
Format settings, Matrix : Default (H.263)
Muxing mode : Packed bitstream
Codec ID : XVID
Codec ID/Hint : XviD
Duration : 2h 8mn
Bit rate : 1 151 Kbps
Width : 720 pixels
Height : 304 pixels
Display aspect ratio : 2.35:1
Frame rate : 23.976 fps
Color space : YUV
Chroma subsampling : 4:2:0
Bit depth : 8 bits
Scan type : Progressive
Compression mode : Lossy
Bits/(Pixel*Frame) : 0.219
Stream size : 1.04 GiB (72%)
Writing library : XviD 63
Audio #1
ID : 1
Format : AC-3
Format/Info : Audio Coding 3
Mode extension : CM (complete main)
Codec ID : 2000
Duration : 2h 8mn
Bit rate mode : Constant
Bit rate : 448 Kbps
Channel(s) : 6 channels
Channel positions : Front: L C R, Side: L R, LFE
Sampling rate : 48.0 KHz
Bit depth : 16 bits
Compression mode : Lossy
Stream size : 413 MiB (28%)
Alignment : Split accross interleaves
Interleave, duration : 42 ms (1.00 video frame)
Interleave, preload duration : 500 ms
Комментарии
Mosa (Mosayile) - это слово на языке лакшадвип означает большие морские волны. Kuthira meenukal - это рыба-меч, которые имеет особенность эгоистично нападать друг на друга.
Калпени - остров принадлежит к группе Лакшвадвипских островов(слово "лакшадвип" означает "Сто тысяч островов". Эта группа островов расположена к западу от Кералы (300 км) . Сам пляж находится в лагуне, окруженной крошечными островками, носящими названия Тилаккам, Питти и Чериям и со всех сторон окружен коралловыми рифами. Можно заказать круиз из Кочина на острова Калпени. Каждый турист, который собирается посетить эти острова, должен иметь разрешение на въезд при обязательном наличии индийской визы.
Бангарам Атолл (Bangaram Atoll (Малайялам: ബങ്കാരം), находится на территории Лакшадвипа, Индия. Атолл имеет прямоугольную форму(примерно) и составляет 8.1 км в длине с максимальной шириной 4.2 км. Он расположен более чем в 400 км (250 миль) от Коччи в Индийском океане.
Куба́рь — распространённая игрушка древней Руси, разновидность волчка.
Для игры кубарь необходимы — цилиндр диаметра от 4 до 8,5 см и высотой от 5 до 11 см со стесанным нижним концом до формы конуса и кнутик — веревочка на короткой палке или просто веревочка длиной 50—80 см. Кубарь раскручивался при помощи веревочки; подхлестывая кубарь кнутиком, можно было поддерживать его скорость вращения и заставлять двигаться в нужном направлении. Существует русская народная поговорка «скатиться кубарем»
Рыба-меч (Xiphias gladius) – рыба из семейства мечерылых (Xiphiidae) отряда окунеобразных (Perciformes). Эти животные – прирожденные одиночки,. Mеч-рыба обладает вкусным мясом. Это великолепный хищник, созданный для удачной охоты. Стремительность и великолепная реакция, острое зрение и заостренный плоский меч, сильные мышцы. Рыба-меч – самое быстрое животное в мире. Эта рыба способна развивать скорость до 130 км/ч. Если бы гепард, самый быстрый сухопутный зверь, смог бегать по воде, от рыбы-меч ему бы убежать не удалось.
Всё в рыбе-меч предназначено для того, чтобы развивать максимальную скорость: мускулистое тело, голое, без всякой чешуи, – для того, чтобы без всякого сопротивления скользить сквозь воду; каждый плавник, хвост в виде серпа; и особенно – замечательный нос в виде меча, рассекающий водные толщи.
Но меч этой рыбе нужен не только для того, чтобы быстро перемещаться в пространстве. При помощи меча рыба добывает себе пропитание. Делает она это так: врывается в какой-нибудь рыбий косяк, разрубает подвернувшихся рыбёшек на куски или калечит. И потом проглатывает. Бех причины нападает на китов.
Коя - народность малабарских мусульман в Керале.
Хавала-агент, хавала - организация, имеющая огромную сеть переводов незаконных средств, спонсирует в том числе и терроризм.
Скриншот c названием фильма Скриншоты
Скачать

Скачать торрент! Рыба-меч среди волн / Mosayile Kuthira Meenukal (Аджит Пиллаи / Ajith Pillai) [2014, Индия, Приключения, мелодрама, DVDRip] + Sub Rus

Как скачивать? · Что такое торрент? · Рейтинг и ограничения

Сайт не распространяет и не хранит электронные версии произведений, а лишь предоставляет доступ к создаваемому пользователями каталогу ссылок на торрент-файлы, которые содержат только списки хеш-сумм

[Профиль] [ЛС]
Показать сообщения:    
Ответить на тему

Текущее время: Сегодня 12:53

Часовой пояс: GMT + 4



Вы не можете начинать темы
Вы не можете отвечать на сообщения
Вы не можете редактировать свои сообщения
Вы не можете удалять свои сообщения
Вы не можете голосовать в опросах
Вы не можете прикреплять файлы к сообщениям
Вы не можете скачивать файлы