Все о Лили Чоу-Чоу / Riri Shushu no subete / All About Lily Chou-Chou (Сюндзи Иваи / Shunji Iwai) [2001, Япония, триллер, драма, мелодрама, криминал, музыка, HDRip] DVO

Ответить на тему
 
Автор Сообщение

user ®

Стаж: 13 лет

Сообщений: 15071

Пост Пост: #1 от 13-Сен-2014 22:00

[Цитировать]

Все о Лили Чоу-Чоу / Riri Shushu no subete- -Страна: Япония
Жанр: триллер, драма, мелодрама, криминал, музыка
Год выпуска: 2001
Продолжительность: 02:26:14-Перевод: Профессиональный (двухголосый закадровый)-Cубтитры: нет
Оригинальная аудиодорожка: нет
Режиссер: Сюндзи Иваи / Iwai Shunji
В ролях: Хаято Итихара, Шуго Ошинари, Аюми Ито, Такао Осава, Мивако Ичикава, Изуми Инамори, Аои Ю, Казуса Матсуда, Рио Кацудзи, Такако Баба
Описание: Жизнь — не лёгкая штука для школьников, выросших среди японской поп-культуры. Главные герои ищут спасения в своём идоле — Лили Чау-Чау, слушают её грустные песни и обмениваются своими тайнами в чатах Lilyholic.
Релиз от -
Качество видео: HDRip
Формат видео: AVI
Видео: MPEG-4 Visual at 1041 Кбит/сек; 704 x 400 (1.760) at 23.976 fps
Аудио: AC-3 at 384 Кбит/сек; 6 каналов, 48,0 КГц
Автор -
MediaInfo
Общее
Полное имя : D:\Фильмы\Азиатские\Все о Лили Чоу-Чоу\All About Lily Chou-Chou.2001.HDRip.XviD.1400MB. rip by [Assassin's Creed].avi
Формат : AVI
Формат/Информация : Audio Video Interleave
Размер файла : 1,47 Гбайт
Продолжительность : 2 ч. 26 м.
Общий поток : 1434 Кбит/сек
Программа кодирования : VirtualDubMod 1.5.10.3 | www.virtualdub-fr.org || (build 2550/release)
Библиотека кодирования : VirtualDubMod build 2550/release
Видео
Идентификатор : 0
Формат : MPEG-4 Visual
Профиль формата : Advanced Simple@L5
Параметр BVOP формата : 1
Параметр QPel формата : Нет
Параметр GMC формата : Без точки перехода
Параметр матрицы формата : Default (MPEG)
Идентификатор кодека : XVID
Идентификатор кодека/Подсказка : XviD
Продолжительность : 2 ч. 26 м.
Битрейт : 1041 Кбит/сек
Ширина : 704 пикселя
Высота : 400 пикселей
Соотношение сторон : 16:9
Частота кадров : 23,976 кадра/сек
Цветовое пространство : YUV
Субдискретизация насыщенности : 4:2:0
Битовая глубина : 8 бит
Тип развёртки : Прогрессивная
Метод сжатия : С потерями
Бит/(Пиксели*Кадры) : 0.154
Размер потока : 1,06 Гбайт (73%)
Библиотека кодирования : XviD 1.2.1 (UTC 2008-12-04)
Аудио
Идентификатор : 1
Формат : AC-3
Формат/Информация : Audio Coding 3
Расширение режима : CM (complete main)
Параметр Endianness формата : Big
Идентификатор кодека : 2000
Продолжительность : 2 ч. 26 м.
Вид битрейта : Постоянный
Битрейт : 384 Кбит/сек
Каналы : 6 каналов
Расположение каналов : Front: L C R, Side: L R, LFE
Частота : 48,0 КГц
Битовая глубина : 16 бит
Метод сжатия : С потерями
Размер потока : 402 Мбайт (27%)
Выравнивание : Разделение по промежуткам
Продолжительность промежутка : 42 мс. (1,00 видеокадр)
Время предзагрузки промежутка : 500 мс.
Скриншот c названием фильма Скриншоты
Скачать

Скачать торрент! Все о Лили Чоу-Чоу / Riri Shushu no subete / All About Lily Chou-Chou (Сюндзи Иваи / Shunji Iwai) [2001, Япония, триллер, драма, мелодрама, криминал, музыка, HDRip] DVO

Как скачивать? · Что такое торрент? · Рейтинг и ограничения

Сайт не распространяет и не хранит электронные версии произведений, а лишь предоставляет доступ к создаваемому пользователями каталогу ссылок на торрент-файлы, которые содержат только списки хеш-сумм

[Профиль] [ЛС]
Показать сообщения:    
Ответить на тему

Текущее время: Сегодня 21:25

Часовой пояс: GMT + 4



Вы не можете начинать темы
Вы не можете отвечать на сообщения
Вы не можете редактировать свои сообщения
Вы не можете удалять свои сообщения
Вы не можете голосовать в опросах
Вы не можете прикреплять файлы к сообщениям
Вы не можете скачивать файлы