Апостолы / The Apostles (Джо Чинь / Joe Chien) [2014, Китай, ужасы, триллер, WEB-DLRip] VO (Виктор Береговых) + Original Chi

Ответить на тему
 
Автор Сообщение

user ®

Стаж: 13 лет

Сообщений: 15071

Пост Пост: #1 от 11-Сен-2014 07:50

[Цитировать]

Апостолы / The Apostles
Страна: Китай
Жанр: ужасы, триллер
Год выпуска: 2014
Продолжительность: 01:26:57
Перевод: Одноголосый закадровый Виктор Береговых
Cубтитры: английские, китайские (неотключаемые)
Оригинальная аудиодорожка: китайский
Режиссер: Джо Чинь / Joe Chien
В ролях: Джози Хо, Ся Фань, Лам Суэт, Лам Чи Чун, Тай По, Ангус Си
Описание: Несколько лет назад Лу Юн (Джози Хо) попала в аварию и с тех пор страдает периодическими провалами в памяти. Однажды она узнает, что ее муж погиб в авиакатастрофе, а спустя какое-то время на нее выходит мужчина по имени Хан Бин (Ся Фань), утверждающий, что у его жены, которая также была на том самолете, был роман с мужем Лу Юн. Соратники по несчастью решают съездить в небольшой городок, где встречались их супруги, но по пути с ними начинают происходить загадочные вещи.
Релиз группа:
Сэмпл
Качество видео: WEB-DLRip (The Apostles.2014.1080p.WEB-DL.x264.AAC-SmY [Eng Subs])
Формат видео: AVI
Видео: Xvid 720x304 (2.37:1) 25.0fps Bit rate 1972Kbps b/p 0.360
Аудио 1: AC3 48.0 KHz 2ch. 192kbps rus vo
Аудио 2: AC3 48.0 KHz 2ch. 192kbps chi
Формат субтитров: hardsub (неотключаемые)
MediaInfo
Общее
Полное имя : E:\torrent\The Apostles.2014.WEB-DLRip.avi
Формат : AVI
Формат/Информация : Audio Video Interleave
Размер файла : 1,44 Гбайт
Продолжительность : 1 ч. 26 м.
Общий поток : 2369 Кбит/сек
Программа кодирования : VirtualDubMod 1.5.10.2 (build 2542/release)
Библиотека кодирования : VirtualDubMod build 2542/release
Видео
Идентификатор : 0
Формат : MPEG-4 Visual
Профиль формата : Advanced Simple@L5
Параметр BVOP формата : 2
Параметр QPel формата : Нет
Параметр GMC формата : Без точки перехода
Параметр матрицы формата : Default (H.263)
Идентификатор кодека : XVID
Идентификатор кодека/Подсказка : XviD
Продолжительность : 1 ч. 26 м.
Битрейт : 1971 Кбит/сек
Ширина : 720 пикселей
Высота : 304 пикселя
Соотношение сторон : 2,35:1
Частота кадров : 25,000 кадров/сек
Цветовое пространство : YUV
Субдискретизация насыщенности : 4:2:0
Битовая глубина : 8 бит
Тип развёртки : Прогрессивная
Метод сжатия : С потерями
Бит/(Пиксели*Кадры) : 0.360
Размер потока : 1,20 Гбайт (83%)
Библиотека кодирования : XviD 65
Аудио #1
Идентификатор : 1
Формат : AC-3
Формат/Информация : Audio Coding 3
Расширение режима : CM (complete main)
Параметр Endianness формата : Big
Идентификатор кодека : 2000
Продолжительность : 1 ч. 26 м.
Вид битрейта : Постоянный
Битрейт : 192 Кбит/сек
Каналы : 2 канала
Расположение каналов : Front: L R
Частота : 48,0 КГц
Битовая глубина : 16 бит
Метод сжатия : С потерями
Размер потока : 119 Мбайт (8%)
Выравнивание : Разделение по промежуткам
Продолжительность промежутка : 40 мс. (1,00 видеокадр)
Время предзагрузки промежутка : 500 мс.
Аудио #2
Идентификатор : 2
Формат : AC-3
Формат/Информация : Audio Coding 3
Расширение режима : CM (complete main)
Параметр Endianness формата : Big
Идентификатор кодека : 2000
Продолжительность : 1 ч. 26 м.
Вид битрейта : Постоянный
Битрейт : 192 Кбит/сек
Каналы : 2 канала
Расположение каналов : Front: L R
Частота : 48,0 КГц
Битовая глубина : 16 бит
Метод сжатия : С потерями
Размер потока : 119 Мбайт (8%)
Выравнивание : Разделение по промежуткам
Продолжительность промежутка : 40 мс. (1,00 видеокадр)
Время предзагрузки промежутка : 500 мс.
Скриншот c названием фильма Скриншоты
Скачать

Скачать торрент! Апостолы / The Apostles (Джо Чинь / Joe Chien) [2014, Китай, ужасы, триллер, WEB-DLRip] VO (Виктор Береговых) + Original Chi

Как скачивать? · Что такое торрент? · Рейтинг и ограничения

Сайт не распространяет и не хранит электронные версии произведений, а лишь предоставляет доступ к создаваемому пользователями каталогу ссылок на торрент-файлы, которые содержат только списки хеш-сумм

[Профиль] [ЛС]
Показать сообщения:    
Ответить на тему

Текущее время: Сегодня 17:23

Часовой пояс: GMT + 4



Вы не можете начинать темы
Вы не можете отвечать на сообщения
Вы не можете редактировать свои сообщения
Вы не можете удалять свои сообщения
Вы не можете голосовать в опросах
Вы не можете прикреплять файлы к сообщениям
Вы не можете скачивать файлы