Все о Лили Чоу-Чоу / Riri Shushu no subete / All About Lily Chou-Chou (Сюндзи Иваи / Shunji Iwai) [2001, Япония, триллер, драма, мелодрама, криминал, музыка, HDRip] DVO + original Jap + Sub (eng)

Ответить на тему
 
Автор Сообщение

user ®

Стаж: 13 лет

Сообщений: 15071

Пост Пост: #1 от 11-Сен-2014 07:50

[Цитировать]

Все о Лили Чоу-Чоу / Riri Shushu no subete- -Страна: Япония
Жанр: триллер, драма, мелодрама, криминал, музыка
Год выпуска: 2001
Продолжительность: 02:26:14-Перевод: Профессиональный (двухголосый закадровый)-Cубтитры: английские [отдельно]
Оригинальная аудиодорожка: японский [отдельно]
Режиссер: Сюндзи Иваи / Iwai Shunji
В ролях: Хаято Итихара, Шуго Ошинари, Аюми Ито, Такао Осава, Мивако Ичикава, Изуми Инамори, Аои Ю, Казуса Матсуда, Рио Кацудзи, Такако Баба
Описание: Жизнь — не лёгкая штука для школьников, выросших среди японской поп-культуры. Главные герои ищут спасения в своём идоле — Лили Чау-Чау, слушают её грустные песни и обмениваются своими тайнами в чатах Lilyholic.
Релиз от -
Сэмпл: http://multi-up.com/998070
Качество видео: HDRip
Формат видео: AVI
Видео: MPEG-4 Visual at 1743 Кбит/сек; 704 x 400 (1.760) at 23.976 fps
Аудио: AC-3 at 384 Кбит/сек; 6 каналов, 48,0 КГц [DVO]
Аудио: AC-3 at 448 Кбит/сек; 6 каналов, 48,0 КГц [Jap]
Автор -
MediaInfo
Общее
Полное имя : D:\Фильмы\Азиатские\Все о Лили Чоу-Чоу\All About Lily Chou-Chou.2001.HDRip.XviD.2200MB. rip by [Assassin's Creed]\All About Lily Chou-Chou.2001.HDRip.XviD.2200MB. rip by [Assassin's Creed].avi
Формат : AVI
Формат/Информация : Audio Video Interleave
Профиль формата : OpenDML
Размер файла : 2,18 Гбайт
Продолжительность : 2 ч. 26 м.
Общий поток : 2138 Кбит/сек
Программа кодирования : VirtualDubMod 1.5.10.2 (build 2540/release)
Библиотека кодирования : VirtualDubMod build 2540/release
Видео
Идентификатор : 0
Формат : MPEG-4 Visual
Профиль формата : Advanced Simple@L5
Параметр BVOP формата : 1
Параметр QPel формата : Нет
Параметр GMC формата : Без точки перехода
Параметр матрицы формата : Default (MPEG)
Идентификатор кодека : XVID
Идентификатор кодека/Подсказка : XviD
Продолжительность : 2 ч. 26 м.
Битрейт : 1743 Кбит/сек
Ширина : 704 пикселя
Высота : 400 пикселей
Соотношение сторон : 16:9
Частота кадров : 23,976 кадра/сек
Цветовое пространство : YUV
Субдискретизация насыщенности : 4:2:0
Битовая глубина : 8 бит
Тип развёртки : Прогрессивная
Метод сжатия : С потерями
Бит/(Пиксели*Кадры) : 0.258
Размер потока : 1,78 Гбайт (81%)
Библиотека кодирования : XviD 1.2.1 (UTC 2008-12-04)
Аудио
Идентификатор : 1
Формат : AC-3
Формат/Информация : Audio Coding 3
Расширение режима : CM (complete main)
Параметр Endianness формата : Big
Идентификатор кодека : 2000
Продолжительность : 2 ч. 26 м.
Вид битрейта : Постоянный
Битрейт : 384 Кбит/сек
Каналы : 6 каналов
Расположение каналов : Front: L C R, Side: L R, LFE
Частота : 48,0 КГц
Битовая глубина : 16 бит
Метод сжатия : С потерями
Размер потока : 402 Мбайт (18%)
Выравнивание : Разделение по промежуткам
Продолжительность промежутка : 42 мс. (1,00 видеокадр)
Время предзагрузки промежутка : 500 мс.
Общее
Полное имя : D:\Фильмы\Азиатские\Все о Лили Чоу-Чоу\All About Lily Chou-Chou.2001.HDRip.XviD.2200MB. rip by [Assassin's Creed]\All About Lily Chou-Chou.2001.HDRip.XviD.2200MB. rip by [Assassin's Creed].eng.srt
Формат : SubRip
Размер файла : 101 Кбайт
Текст
Формат : SubRip
Метод сжатия : Без потерь
Общее
Полное имя : D:\Фильмы\Азиатские\Все о Лили Чоу-Чоу\All About Lily Chou-Chou.2001.HDRip.XviD.2200MB. rip by [Assassin's Creed]\All About Lily Chou-Chou.2001.Japan.ac3
Формат : AC-3
Формат/Информация : Audio Coding 3
Размер файла : 469 Мбайт
Продолжительность : 2 ч. 26 м.
Режим общего битрейта : Постоянный
Общий поток : 448 Кбит/сек
Аудио
Формат : AC-3
Формат/Информация : Audio Coding 3
Расширение режима : CM (complete main)
Параметр Endianness формата : Big
Продолжительность : 2 ч. 26 м.
Вид битрейта : Постоянный
Битрейт : 448 Кбит/сек
Каналы : 6 каналов
Расположение каналов : Front: L C R, Side: L R, LFE
Частота : 48,0 КГц
Битовая глубина : 16 бит
Метод сжатия : С потерями
Размер потока : 469 Мбайт (100%)
Скриншот c названием фильма Скриншоты
Скачать

Скачать торрент! Все о Лили Чоу-Чоу / Riri Shushu no subete / All About Lily Chou-Chou (Сюндзи Иваи / Shunji Iwai) [2001, Япония, триллер, драма, мелодрама, криминал, музыка, HDRip] DVO + original Jap + Sub (eng)

Как скачивать? · Что такое торрент? · Рейтинг и ограничения

Сайт не распространяет и не хранит электронные версии произведений, а лишь предоставляет доступ к создаваемому пользователями каталогу ссылок на торрент-файлы, которые содержат только списки хеш-сумм

[Профиль] [ЛС]
Показать сообщения:    
Ответить на тему

Текущее время: Сегодня 18:15

Часовой пояс: GMT + 4



Вы не можете начинать темы
Вы не можете отвечать на сообщения
Вы не можете редактировать свои сообщения
Вы не можете удалять свои сообщения
Вы не можете голосовать в опросах
Вы не можете прикреплять файлы к сообщениям
Вы не можете скачивать файлы