Перелётная (Вера Мякишева) [2012, мультфильм, WEBRip-AVC]

Ответить на тему
 
Автор Сообщение

user ®

Стаж: 7 лет 7 месяцев

Сообщений: 20008

Пост Пост: #1 от 05-Сен-2014 20:40

[Цитировать]

Перелётная
Страна: Россия
Жанр: мультфильм
Продолжительность: 00:05:46
Год выпуска: 2012
Перевод: Не требуется
Русские субтитры: нет
Режиссёр: Вера Мякишева
Описание: Все цыплята - как цыплята, а Зина очень хочет летать. Что бы там ни говорили, курица - тоже птица.
Качество: WEBRip-AVC
Формат: MP4
Видео: 1800 kbps, 1280х720 (16:9), 25.000 fps, AVC (High@L3.1)
Аудио: 128 kbps, 44.1 kHz, 2 channels, AAC (LC)
Субтитры: отсутствуют
Подробные технические данные
GeneralComplete name : Перелётная (2012).mp4Format : MPEG-4Format profile : Base MediaCodec ID : isomFile size : 78.3 MiBDuration : 5mn 46sOverall bit rate mode : VariableOverall bit rate : 1 893 KbpsWriting application : Lavf54.59.106
VideoID : 1Format : AVCFormat/Info : Advanced Video CodecFormat profile : High@L3.1Format settings, CABAC : YesFormat settings, ReFrames : 4 framesCodec ID : avc1Codec ID/Info : Advanced Video CodingDuration : 5mn 46sBit rate : 1 800 KbpsWidth : 1 280 pixelsHeight : 720 pixelsDisplay aspect ratio : 16:9Frame rate mode : ConstantFrame rate : 25.000 fpsColor space : YUVChroma subsampling : 4:2:0Bit depth : 8 bitsScan type : ProgressiveBits/(Pixel*Frame) : 0.078Stream size : 72.7 MiB (93%)Writing library : x264 core 129Encoding settings : cabac=1 / ref=3 / deblock=1:0:0 / analyse=0x3:0x113 / me=hex / subme=7 / psy=1 / psy_rd=1.00:0.00 / mixed_ref=1 / me_range=16 / chroma_me=1 / trellis=1 / 8x8dct=1 / cqm=0 / deadzone=21,11 / fast_pskip=1 / chroma_qp_offset=-2 / threads=24 / lookahead_threads=4 / sliced_threads=0 / nr=0 / decimate=1 / interlaced=0 / bluray_compat=0 / constrained_intra=0 / bframes=3 / b_pyramid=2 / b_adapt=1 / b_bias=0 / direct=1 / weightb=1 / open_gop=0 / weightp=2 / keyint=250 / keyint_min=25 / scenecut=40 / intra_refresh=0 / rc_lookahead=40 / rc=abr / mbtree=1 / bitrate=1800 / ratetol=1.0 / qcomp=0.60 / qpmin=0 / qpmax=69 / qpstep=4 / ip_ratio=1.40 / aq=1:1.00
AudioID : 2Format : AACFormat/Info : Advanced Audio CodecFormat profile : LCCodec ID : 40Duration : 5mn 46sDuration_LastFrame : -6msBit rate mode : VariableBit rate : 128 KbpsChannel(s) : 2 channelsChannel positions : Front: L RSampling rate : 44.1 KHzCompression mode : LossyStream size : 5.26 MiB (7%)
Скриншоты
Скачать

Скачать торрент!

Как скачивать? · Что такое торрент? · Рейтинг и ограничения

Сайт не распространяет и не хранит электронные версии произведений, а лишь предоставляет доступ к создаваемому пользователями каталогу ссылок на торрент-файлы, которые содержат только списки хеш-сумм

[Профиль] [ЛС]
Показать сообщения:    
Ответить на тему

Текущее время: Сегодня 14:36

Часовой пояс: GMT + 4



Вы не можете начинать темы
Вы не можете отвечать на сообщения
Вы не можете редактировать свои сообщения
Вы не можете удалять свои сообщения
Вы не можете голосовать в опросах
Вы не можете прикреплять файлы к сообщениям
Вы не можете скачивать файлы