Гнев Ваджра / Ярость Ваджра / The Wrath of Vajra (Винг-Чеонг Лау / Wing-cheong Law) [2013, Китай, фэнтези, боевик, HDRip] VO [В. Береговых]

Ответить на тему
 
Автор Сообщение

user ®

Стаж: 13 лет

Сообщений: 15071

Пост Пост: #1 от 31-Авг-2014 16:10

[Цитировать]

Гнев Ваджра / Ярость Ваджра / The Wrath of Vajra- -Страна: Китай
Жанр: фэнтези, боевик
Год выпуска: 2013
Продолжительность: 01:50:37-Перевод: Одноголосый закадровый [В. Береговых] Перевод: ФСГ 'Bears'-Cубтитры: русские [вшитые на фрагмент без перевода]
Оригинальная аудиодорожка: нет
Режиссер: Винг-Чеонг Лау / Wing-cheong Law
В ролях: Юй Син, Ю Сон Чжун, Хон Джан Нэм, Baocheng Jiang, Yamei Zhang, Ясуаки Курата, Хироюки Икэути, Мэтт Маллинз, Кофи Йадом, Роберт Жилабер Куенка
Описание: В 1930-х, до того, как западные державы вступили во Вторую мировую войну, японскому культу смерти, называющемуся Храм Аида, поступает приказ начать сотрудничество с военными с целью помочь им в разрушении духовного здоровья Китая. Элитные воины верят, что войну можно выиграть без использования оружия, созданного руками человека. Они выкупают маленьких детей у бедных родителей и обучают их боевым искусствам, чтобы сделать из них наёмных убийц, которые будут служить на благо Японской Империи.
Релиз от -
Сэмпл: http://multi-up.com/995806
Качество видео: HDRip
Формат видео: AVI
Видео: MPEG-4 Visual at 1440 Кбит/сек; 720 x 304 (2.368) at 24.000 fps
Аудио: AC-3 at 448 Кбит/сек; 6 каналов, 48,0 КГц
Автор -
MediaInfo
Общее
Полное имя : D:\Фильмы\Азиатские\Гнев Ваджра\The Wrath of Vajra.2013.HDRip.XviD.1400MB. rip by [Assassin's Creed].avi
Формат : AVI
Формат/Информация : Audio Video Interleave
Размер файла : 1,47 Гбайт
Продолжительность : 1 ч. 50 м.
Общий поток : 1898 Кбит/сек
Программа кодирования : VirtualDubMod 1.5.10.3 | www.virtualdub-fr.org || (build 2550/release)
Библиотека кодирования : VirtualDubMod build 2550/release
Видео
Идентификатор : 0
Формат : MPEG-4 Visual
Профиль формата : Advanced Simple@L5
Параметр BVOP формата : 1
Параметр QPel формата : Нет
Параметр GMC формата : Без точки перехода
Параметр матрицы формата : Default (MPEG)
Идентификатор кодека : XVID
Идентификатор кодека/Подсказка : XviD
Продолжительность : 1 ч. 50 м.
Битрейт : 1440 Кбит/сек
Ширина : 720 пикселей
Высота : 304 пикселя
Соотношение сторон : 2,35:1
Частота кадров : 24,000 кадра/сек
Цветовое пространство : YUV
Субдискретизация насыщенности : 4:2:0
Битовая глубина : 8 бит
Тип развёртки : Прогрессивная
Метод сжатия : С потерями
Бит/(Пиксели*Кадры) : 0.274
Размер потока : 1,11 Гбайт (76%)
Библиотека кодирования : XviD 1.2.1 (UTC 2008-12-04)
Аудио
Идентификатор : 1
Формат : AC-3
Формат/Информация : Audio Coding 3
Расширение режима : CM (complete main)
Параметр Endianness формата : Big
Идентификатор кодека : 2000
Продолжительность : 1 ч. 50 м.
Вид битрейта : Постоянный
Битрейт : 448 Кбит/сек
Каналы : 6 каналов
Расположение каналов : Front: L C R, Side: L R, LFE
Частота : 48,0 КГц
Битовая глубина : 16 бит
Метод сжатия : С потерями
Размер потока : 354 Мбайт (24%)
Выравнивание : Разделение по промежуткам
Продолжительность промежутка : 42 мс. (1,00 видеокадр)
Время предзагрузки промежутка : 500 мс.
Скриншот c названием фильма Скриншоты
Скачать

Скачать торрент! Гнев Ваджра / Ярость Ваджра / The Wrath of Vajra (Винг-Чеонг Лау / Wing-cheong Law) [2013, Китай, фэнтези, боевик, HDRip] VO [В. Береговых]

Как скачивать? · Что такое торрент? · Рейтинг и ограничения

Сайт не распространяет и не хранит электронные версии произведений, а лишь предоставляет доступ к создаваемому пользователями каталогу ссылок на торрент-файлы, которые содержат только списки хеш-сумм

[Профиль] [ЛС]
Показать сообщения:    
Ответить на тему

Текущее время: Сегодня 16:58

Часовой пояс: GMT + 4



Вы не можете начинать темы
Вы не можете отвечать на сообщения
Вы не можете редактировать свои сообщения
Вы не можете удалять свои сообщения
Вы не можете голосовать в опросах
Вы не можете прикреплять файлы к сообщениям
Вы не можете скачивать файлы