Полицейская история 2013 / Police Story 2013 / Jing cha gu shi 2013 (Дин Шэн / Ding Sheng) [2013, Китай, Гонконг, криминал, драма, триллер, боевик, HDRip] AVO [А. Дольский] + DVO [GREEN TEA] + original Chin + Sub Eng

Ответить на тему
 
Автор Сообщение

user ®

Стаж: 13 лет

Сообщений: 15071

Пост Пост: #1 от 26-Авг-2014 20:15

[Цитировать]

Полицейская история 2013 / Police Story 2013 / Jing cha gu shi 2013- -Страна: Китай, Гонконг
Жанр: криминал, драма, триллер, боевик
Год выпуска: 2013
Продолжительность: 01:50:07-Перевод: Авторский (одноголосый закадровый) [А. Дольский]
Перевод : Любительский (двухголосый закадровый) [GREEN TEA]-Cубтитры: английские [отдельно]
Оригинальная аудиодорожка: китайский [отдельно]
Режиссер: Дин Шэн / Ding Sheng
В ролях: Джеки Чан, Лю Е, Тянь Цзин, Вэй На, Юй Жун Гуан, Александр Байли, Макс Хуан, Лью Пэйци, Ивэй Лау, Джеймс Лоджа...
Описание: История начинается с того, что посетители паба оказываются взятыми в заложники. Среди посетителей есть офицер полиции Вэнь Чжун и его непослушная дочь Мяомяо. Человек, удерживающий всех в заложниках — владелец паба, который таким образом пытается добиться освобождения из тюрьмы одного преступника…
Релиз от -
Сэмпл: http://multi-up.com/994478
Качество видео: HDRip
Формат видео: AVI
Видео: MPEG-4 Visual at 2095 Кбит/сек; 720 x 304 (2.368) at 24.000 fps
Аудио: AC-3 at 384 Кбит/сек; 6 каналов, 48,0 КГц [AVO]
Аудио: AC-3 at 224 Кбит/сек; 2 канала, 48,0 КГц [DVO]
Аудио: AC-3 at 448 Кбит/сек; 6 каналов, 48,0 КГц [Chin]
Автор -
MediaInfo
Общее
Полное имя : D:\Фильмы\Азиатские\Полицейская история 2013\Police Story.2013.HDRip.XviD.2200MB. rip by [Assassin's Creed]\Police Story.2013.HDRip.XviD.2200MB. rip by [Assassin's Creed].avi
Формат : AVI
Формат/Информация : Audio Video Interleave
Профиль формата : OpenDML
Размер файла : 2,09 Гбайт
Продолжительность : 1 ч. 50 м.
Общий поток : 2721 Кбит/сек
Программа кодирования : VirtualDubMod 1.5.10.2 (build 2540/release)
Библиотека кодирования : VirtualDubMod build 2540/release
Видео
Идентификатор : 0
Формат : MPEG-4 Visual
Профиль формата : Advanced Simple@L5
Параметр BVOP формата : 1
Параметр QPel формата : Нет
Параметр GMC формата : Без точки перехода
Параметр матрицы формата : Default (MPEG)
Идентификатор кодека : XVID
Идентификатор кодека/Подсказка : XviD
Продолжительность : 1 ч. 50 м.
Битрейт : 2095 Кбит/сек
Ширина : 720 пикселей
Высота : 304 пикселя
Соотношение сторон : 2,35:1
Частота кадров : 24,000 кадра/сек
Цветовое пространство : YUV
Субдискретизация насыщенности : 4:2:0
Битовая глубина : 8 бит
Тип развёртки : Прогрессивная
Метод сжатия : С потерями
Бит/(Пиксели*Кадры) : 0.399
Размер потока : 1,61 Гбайт (77%)
Библиотека кодирования : XviD 1.2.1 (UTC 2008-12-04)
Аудио #1
Идентификатор : 1
Формат : AC-3
Формат/Информация : Audio Coding 3
Расширение режима : CM (complete main)
Параметр Endianness формата : Big
Идентификатор кодека : 2000
Продолжительность : 1 ч. 50 м.
Вид битрейта : Постоянный
Битрейт : 384 Кбит/сек
Каналы : 6 каналов
Расположение каналов : Front: L C R, Side: L R, LFE
Частота : 48,0 КГц
Битовая глубина : 16 бит
Метод сжатия : С потерями
Размер потока : 302 Мбайт (14%)
Выравнивание : Разделение по промежуткам
Продолжительность промежутка : 42 мс. (1,00 видеокадр)
Время предзагрузки промежутка : 500 мс.
Аудио #2
Идентификатор : 2
Формат : AC-3
Формат/Информация : Audio Coding 3
Расширение режима : CM (complete main)
Параметр Endianness формата : Big
Идентификатор кодека : 2000
Продолжительность : 1 ч. 50 м.
Вид битрейта : Постоянный
Битрейт : 224 Кбит/сек
Каналы : 2 канала
Расположение каналов : Front: L R
Частота : 48,0 КГц
Битовая глубина : 16 бит
Метод сжатия : С потерями
Размер потока : 176 Мбайт (8%)
Выравнивание : Разделение по промежуткам
Продолжительность промежутка : 42 мс. (1,00 видеокадр)
Время предзагрузки промежутка : 500 мс.
Общее
Полное имя : D:\Фильмы\Азиатские\Полицейская история 2013\Police Story.2013.HDRip.XviD.2900MB. rip by [Assassin's Creed]\Police Story.2013.HDRip.XviD.2200MB. rip by [Assassin's Creed].eng.srt
Формат : SubRip
Размер файла : 107 Кбайт
Текст
Формат : SubRip
Метод сжатия : Без потерь
Общее
Полное имя : D:\Фильмы\Азиатские\Полицейская история 2013\Police Story.2013.HDRip.XviD.2900MB. rip by [Assassin's Creed]\Police Story.2013.HDRip.XviD.2900MB.Chin. rip by [Assassin's Creed].ac3
Формат : AC-3
Формат/Информация : Audio Coding 3
Размер файла : 353 Мбайт
Продолжительность : 1 ч. 50 м.
Режим общего битрейта : Постоянный
Общий поток : 448 Кбит/сек
Аудио
Формат : AC-3
Формат/Информация : Audio Coding 3
Расширение режима : CM (complete main)
Параметр Endianness формата : Big
Продолжительность : 1 ч. 50 м.
Вид битрейта : Постоянный
Битрейт : 448 Кбит/сек
Каналы : 6 каналов
Расположение каналов : Front: L C R, Side: L R, LFE
Частота : 48,0 КГц
Битовая глубина : 16 бит
Метод сжатия : С потерями
Размер потока : 353 Мбайт (100%)
Скриншот c названием фильма Скриншоты
Скачать

Скачать торрент! Полицейская история 2013 / Police Story 2013 / Jing cha gu shi 2013 (Дин Шэн / Ding Sheng) [2013, Китай, Гонконг, криминал, драма, триллер, боевик, HDRip] AVO [А. Дольский] + DVO [GREEN TEA] + original Chin + Sub Eng

Как скачивать? · Что такое торрент? · Рейтинг и ограничения

Сайт не распространяет и не хранит электронные версии произведений, а лишь предоставляет доступ к создаваемому пользователями каталогу ссылок на торрент-файлы, которые содержат только списки хеш-сумм

[Профиль] [ЛС]
Показать сообщения:    
Ответить на тему

Текущее время: Сегодня 20:54

Часовой пояс: GMT + 4



Вы не можете начинать темы
Вы не можете отвечать на сообщения
Вы не можете редактировать свои сообщения
Вы не можете удалять свои сообщения
Вы не можете голосовать в опросах
Вы не можете прикреплять файлы к сообщениям
Вы не можете скачивать файлы