Виражи судьбы / Yeh Raaste Hain Pyaar Ke (Дипак Шивдасани / Deepak S. Shivdasani) [2001, Индия, Мелодрама, DVDRip] DVO (Арена)

Ответить на тему
 
Автор Сообщение

user ®

Стаж: 12 лет

Сообщений: 15092

Пост Пост: #1 от 22-Авг-2014 08:55

[Цитировать]

Виражи судьбы / Yeh Raaste Hain Pyaar Ke
Страна: Индия
Жанр: Мелодрама
Год выпуска: 2001
Продолжительность: 02:46:38
Перевод: Любительский (двухголосый закадровый) Арена
Cубтитры: нет
Режиссер: Дипак Шивдасани / Deepak S. Shivdasani
В ролях: Аджай Девган, Мадхури Дикшит, Прити Зинта, Викрам Гокхале, Дип Дхиллон, Смита Джайкар, Санни Деол, Киран Кумар, Раджив Верма, Джайшри Т., Аша Шарма, Лалит Тивари, Шамми, Мадан Джеин, Тику Талсания, Маюр Верма
Описание: Вики вместе со своей невестой угоняет и продает краденые автомобили. Однажды Вики выиграл крупную сумму денег в казино, за что чуть было не поплатился жизнью. Бандиты по ошибке убивают Рохита, мужа Нехи, внешне как две капли воды похожего на Вики. После неожиданной встречи с двойником отец Рохита умоляет его ради счастья невестки сыграть роль ее супруга. После недолгих раздумий Вики соглашается...
Доп. информация: Сведение звука: минакши (Спасибо!)
Сэмпл: http://multi-up.com/993949
Качество видео: DVDRip
Формат видео: AVI
Видео: XviD build 37, 640x336 (1.90:1), 23.976 fps, 1044 kbps avg
Аудио: MPEG Layer 3, 44.100 kHz, 2/0 (L,R) ch, 128.00 kbps avg
MediaInfo
General
Complete name : F:\Virazhi.Sudby.2001.DVDRip.XviD.Mp3.avi
Format : AVI
Format/Info : Audio Video Interleave
File size : 1.38 GiB
Duration : 2h 46mn
Overall bit rate : 1 182 Kbps
Writing application : VirtualDubMod 1.5.10.2 (build 2540/release)
Writing library : VirtualDubMod build 2540/release
Video
ID : 0
Format : MPEG-4 Visual
Format profile : AdvancedSimple@L5
Format settings, BVOP : Yes
Format settings, QPel : No
Format settings, GMC : No warppoints
Format settings, Matrix : Custom
Codec ID : XVID
Codec ID/Hint : XviD
Duration : 2h 46mn
Bit rate : 1 045 Kbps
Width : 640 pixels
Height : 336 pixels
Display aspect ratio : 1.905
Frame rate : 23.976 fps
Resolution : 24 bits
Colorimetry : 4:2:0
Scan type : Progressive
Bits/(Pixel*Frame) : 0.203
Stream size : 1.22 GiB (88%)
Writing library : XviD 1.0.3 (UTC 2004-12-20)
Audio
ID : 1
Format : MPEG Audio
Format version : Version 1
Format profile : Layer 3
Codec ID : 55
Codec ID/Hint : MP3
Duration : 2h 46mn
Bit rate mode : Constant
Bit rate : 128 Kbps
Channel(s) : 2 channels
Sampling rate : 44.1 KHz
Resolution : 16 bits
Stream size : 153 MiB (11%)
Alignment : Split accross interleaves
Interleave, duration : 42 ms (1.00 video frame)
Interleave, preload duration : 500 ms
Language : Hindi
Скриншоты Сравнения
[url=http://***/forum/viewtopic.php?t=1542258]http://***/forum/viewtopic.php?t=1542258[/url] => http://screenshotcomparison.com/comparison/88610/picture:3
Перевод тот же.
Скачать

Скачать торрент! Виражи судьбы / Yeh Raaste Hain Pyaar Ke (Дипак Шивдасани / Deepak S. Shivdasani) [2001, Индия, Мелодрама, DVDRip] DVO (Арена)

Как скачивать? · Что такое торрент? · Рейтинг и ограничения

Сайт не распространяет и не хранит электронные версии произведений, а лишь предоставляет доступ к создаваемому пользователями каталогу ссылок на торрент-файлы, которые содержат только списки хеш-сумм

[Профиль] [ЛС]
Показать сообщения:    
Ответить на тему

Текущее время: Сегодня 06:57

Часовой пояс: GMT + 4



Вы не можете начинать темы
Вы не можете отвечать на сообщения
Вы не можете редактировать свои сообщения
Вы не можете удалять свои сообщения
Вы не можете голосовать в опросах
Вы не можете прикреплять файлы к сообщениям
Вы не можете скачивать файлы