Бешеный / Running Wild / Ya-soo (Ким Синг-Су / Kim Seong-soo) [2006, Южная Корея, криминал, триллер, боевик, HDRip] AVO [Ю. Сербин]

Ответить на тему
 
Автор Сообщение

user ®

Стаж: 13 лет

Сообщений: 15071

Пост Пост: #1 от 21-Авг-2014 14:35

[Цитировать]

Бешеный / Running Wild / Ya-soo- -Страна: Южная Корея
Жанр: криминал, триллер, боевик
Год выпуска: 2006
Продолжительность: 02:05:08-Перевод: Авторский (одноголосый закадровый)-Cубтитры: нет
Оригинальная аудиодорожка: нет
Режиссер: Ким Синг-Су / Kim Seong-soo
В ролях: Сан-ву Квон, Цзи Тэ Ю, Кил-Канг Ан, Сёк-хён Джо, Юнь-cок Ким, Jung-Hee Moon, Бьюнг-хо Сон, Ji-won Uhm, Dong-geun Yun
Описание: Молодой сотрудник сеульской прокуратуры О Джин Ву уже на протяжении нескольких лет пытается отправить за решетку крупного преступного босса по фамилии Кан. Преступник весьма хитер, поэтому не дает своему врагу ни малейшего шанса на успех, принуждая молодого обвинителя день за днем сидеть со своей командой в засаде возле его дома и ждать удобного повода для ареста.
И вот однажды возле дома Кана появляется грязный и волосатый тип, который довольно долго кричит в адрес хозяина дома оскорбления, а потом еще и затевает бесмысленную драку с его охраной. Люди О Джин Ву хватают смутьяна и обнаруживают, что перед ними их коллега — полицейский Чжан До Юн. Очень грубый и взрывной отморозок, готовый из-за любой мелочи вцепиться любому противнику в горло. Особенно же, если этот противник — вор, и вор, сделавший что-то нехорошее кому-то из его близких. Умный и расчетливый О Джин Ву понимает, что из такого субьекта как как Чжан До Юн может получиться довольно полезный союзник для борьбы с Каном…
Релиз от -
Качество видео: HDRip
Формат видео: AVI
Видео: MPEG-4 Visual at 1214 Кбит/сек; 704 x 304 (2.316) at 23.976 fps
Аудио: AC-3 at 448 Кбит/сек; 6 каналов, 48,0 КГц
Автор -
MediaInfo
Общее
Полное имя : D:\Фильмы\Азиатские\Бешеный\Running Wild.2006.HDRip.XviD.1400MB. rip by [Assassin's Creed].avi
Формат : AVI
Формат/Информация : Audio Video Interleave
Размер файла : 1,46 Гбайт
Продолжительность : 2 ч. 5 м.
Общий поток : 1672 Кбит/сек
Программа кодирования : VirtualDubMod 1.5.10.3 | www.virtualdub-fr.org || (build 2550/release)
Библиотека кодирования : VirtualDubMod build 2550/release
Видео
Идентификатор : 0
Формат : MPEG-4 Visual
Профиль формата : Advanced Simple@L5
Параметр BVOP формата : 1
Параметр QPel формата : Нет
Параметр GMC формата : Без точки перехода
Параметр матрицы формата : Default (MPEG)
Идентификатор кодека : XVID
Идентификатор кодека/Подсказка : XviD
Продолжительность : 2 ч. 5 м.
Битрейт : 1214 Кбит/сек
Ширина : 704 пикселя
Высота : 304 пикселя
Соотношение сторон : 2,35:1
Частота кадров : 23,976 кадра/сек
Цветовое пространство : YUV
Субдискретизация насыщенности : 4:2:0
Битовая глубина : 8 бит
Тип развёртки : Прогрессивная
Метод сжатия : С потерями
Бит/(Пиксели*Кадры) : 0.237
Размер потока : 1,06 Гбайт (73%)
Библиотека кодирования : XviD 1.2.1 (UTC 2008-12-04)
Аудио
Идентификатор : 1
Формат : AC-3
Формат/Информация : Audio Coding 3
Расширение режима : CM (complete main)
Параметр Endianness формата : Big
Идентификатор кодека : 2000
Продолжительность : 2 ч. 5 м.
Вид битрейта : Постоянный
Битрейт : 448 Кбит/сек
Каналы : 6 каналов
Расположение каналов : Front: L C R, Side: L R, LFE
Частота : 48,0 КГц
Битовая глубина : 16 бит
Метод сжатия : С потерями
Размер потока : 401 Мбайт (27%)
Выравнивание : Разделение по промежуткам
Продолжительность промежутка : 42 мс. (1,00 видеокадр)
Время предзагрузки промежутка : 500 мс.
Скриншот c названием фильма Скриншоты
Скачать

Скачать торрент! Бешеный / Running Wild / Ya-soo (Ким Синг-Су / Kim Seong-soo) [2006, Южная Корея, криминал, триллер, боевик, HDRip] AVO [Ю. Сербин]

Как скачивать? · Что такое торрент? · Рейтинг и ограничения

Сайт не распространяет и не хранит электронные версии произведений, а лишь предоставляет доступ к создаваемому пользователями каталогу ссылок на торрент-файлы, которые содержат только списки хеш-сумм

[Профиль] [ЛС]
Показать сообщения:    
Ответить на тему

Текущее время: Сегодня 18:14

Часовой пояс: GMT + 4



Вы не можете начинать темы
Вы не можете отвечать на сообщения
Вы не можете редактировать свои сообщения
Вы не можете удалять свои сообщения
Вы не можете голосовать в опросах
Вы не можете прикреплять файлы к сообщениям
Вы не можете скачивать файлы