Сломленный / Bang-hwang-ha-neun kal-nal (Ли Чжон Хо / Jeong-ho Lee) [2014, Корея Южная, триллер, криминал, HDTVRip] DVO (2D)

Ответить на тему
 
Автор Сообщение

user ®

Стаж: 13 лет

Сообщений: 15071

Пост Пост: #1 от 19-Авг-2014 00:05

[Цитировать]

Сломленный / Bang-hwang-ha-neun kal-nal
Страна: Корея Южная
Жанр: триллер, криминал
Год выпуска: 2014
Продолжительность: 02:02:36
Перевод: Любительский (двухголосый закадровый) 2D
Cубтитры: нет
Оригинальная аудиодорожка: нет
Режиссер: Ли Чжон Хо / Jeong-ho Lee
В ролях: Чжэ Ён Чон, Сун Мин Ли, Чжун Ён Со, Су Бин Ли, Сан Ук Чхве, Чжу Сын Ли, Чжи Хёк Ким, Чжон Се О
Описание: Сан Хюн, потеряв свою жену, стал жить со своей дочерью Су Дзин. Однажды Су Дзин насилуют и убивают. Раздосадованный беспомощностью полиции, Сан Хюн решает сам выследить убийц его дочери…
Доп. информация:

Присутствует ненормативная лексика
Сэмпл: http://multi-up.com/993229
Качество видео: HDTVRip
Формат видео: AVI
Видео: 720x400 (1.80:1), 30 fps, XviD build 50 ~1398 kbps avg, 0.16 bit/pixel
Аудио: 48 kHz, AC3 Dolby Digital, 2/0 (L,R) ch, ~192 kbps
MediaInfo
General
Complete name : C:\Users\Вика\Desktop\Slomlennyj.2014.HDTVRip.avi
Format : AVI
Format/Info : Audio Video Interleave
File size : 1.37 GiB
Duration : 2h 2mn
Overall bit rate : 1 602 Kbps
Writing application : VirtualDubMod 1.5.10.3 | www.virtualdub-fr.org || (build 2550/release)
Writing library : VirtualDubMod build 2550/release
Video
ID : 0
Format : MPEG-4 Visual
Format profile : Advanced Simple@L5
Format settings, BVOP : Yes
Format settings, QPel : No
Format settings, GMC : No warppoints
Format settings, Matrix : Default (MPEG)
Codec ID : DX50
Codec ID/Hint : DivX 5
Duration : 2h 2mn
Bit rate : 1 399 Kbps
Width : 720 pixels
Height : 400 pixels
Display aspect ratio : 16:9
Frame rate : 30.000 fps
Color space : YUV
Chroma subsampling : 4:2:0
Bit depth : 8 bits
Scan type : Progressive
Compression mode : Lossy
Bits/(Pixel*Frame) : 0.162
Stream size : 1.20 GiB (87%)
Writing library : XviD 1.2.1 (UTC 2008-12-04)
Audio
ID : 1
Format : AC-3
Format/Info : Audio Coding 3
Mode extension : CM (complete main)
Format settings, Endianness : Big
Codec ID : 2000
Duration : 2h 2mn
Bit rate mode : Constant
Bit rate : 192 Kbps
Channel count : 2 channels
Channel positions : Front: L R
Sampling rate : 48.0 KHz
Bit depth : 16 bits
Compression mode : Lossy
Stream size : 168 MiB (12%)
Alignment : Split accross interleaves
Interleave, duration : 33 ms (1.00 video frame)
Interleave, preload duration : 500 ms
Скриншоты
Скачать

Скачать торрент! Сломленный / Bang-hwang-ha-neun kal-nal (Ли Чжон Хо / Jeong-ho Lee) [2014, Корея Южная, триллер, криминал, HDTVRip] DVO (2D)

Как скачивать? · Что такое торрент? · Рейтинг и ограничения

Сайт не распространяет и не хранит электронные версии произведений, а лишь предоставляет доступ к создаваемому пользователями каталогу ссылок на торрент-файлы, которые содержат только списки хеш-сумм

[Профиль] [ЛС]
Показать сообщения:    
Ответить на тему

Текущее время: Сегодня 17:17

Часовой пояс: GMT + 4



Вы не можете начинать темы
Вы не можете отвечать на сообщения
Вы не можете редактировать свои сообщения
Вы не можете удалять свои сообщения
Вы не можете голосовать в опросах
Вы не можете прикреплять файлы к сообщениям
Вы не можете скачивать файлы