Ночь весны (Вадим Курчевский) [1976, мультфильм, TVRip]

Ответить на тему
 
Автор Сообщение

user ®

Стаж: 7 лет 7 месяцев

Сообщений: 20008

Пост Пост: #1 от 05-Авг-2014 15:30

[Цитировать]

Ночь весны
Страна: СССР
Жанр: мультфильм
Продолжительность: 00:08:54
Год выпуска: 1976
Перевод: Не требуется
Русские субтитры: нет
Режиссёр: Вадим Курчевский
Роли озвучивали: Юрий Каюров
Описание: Ночь весны - поэтический фильм, поставленный по одноименному стихотворению В. Луговского. Фильм посвящен теме верности боевым традициям революционного прошлого, теме человеческого счастья, смысл которого - в борьбе за высокие идеалы.
Семпл: https://yadi.sk/i/0H1nqZygZ7L4Y
Качество: TVRip
Формат: AVI
Видео: XviD, 640х480, 25.000 fps, 2222 Kbps
Аудио: MP3, 48.0 KHz, 2 channels, 192 Kbps
Субтитры: отсутствуют
Подробные технические данные
GeneralComplete name : C:\Users\Саша\Downloads\Видео\noch.vesny.aviFormat : AVIFormat/Info : Audio Video InterleaveFile size : 154 MiBDuration : 8mn 54sOverall bit rate : 2 424 KbpsWriting application : VirtualDubMod 1.5.10.2 (build 2540/release)Writing library : VirtualDubMod build 2540/release
VideoID : 0Format : MPEG-4 VisualFormat profile : Advanced Simple@L5Format settings, BVOP : YesFormat settings, QPel : NoFormat settings, GMC : No warppointsFormat settings, Matrix : Default (H.263)Codec ID : XVIDCodec ID/Hint : XviDDuration : 8mn 54sBit rate : 2 222 KbpsWidth : 640 pixelsHeight : 480 pixelsDisplay aspect ratio : 4:3Frame rate : 25.000 fpsResolution : 8 bitsColorimetry : 4:2:0Scan type : ProgressiveBits/(Pixel*Frame) : 0.289Stream size : 142 MiB (92%)Writing library : XviD 1.2.1 (UTC 2008-12-04)
AudioID : 1Format : MPEG AudioFormat version : Version 1Format profile : Layer 3Codec ID : 55Codec ID/Hint : MP3Duration : 8mn 54sBit rate mode : ConstantBit rate : 192 KbpsChannel(s) : 2 channelsSampling rate : 48.0 KHzStream size : 12.2 MiB (8%)Alignment : Aligned on interleavesInterleave, duration : 40 ms (1.00 video frame)Interleave, preload duration : 504 msWriting library : LAME3.98rEncoding settings : -m s -V 4 -q 0 -lowpass 18.6 -b 192
Скриншоты
Скачать

Скачать торрент!

Как скачивать? · Что такое торрент? · Рейтинг и ограничения

Сайт не распространяет и не хранит электронные версии произведений, а лишь предоставляет доступ к создаваемому пользователями каталогу ссылок на торрент-файлы, которые содержат только списки хеш-сумм

[Профиль] [ЛС]
Показать сообщения:    
Ответить на тему

Текущее время: Сегодня 03:11

Часовой пояс: GMT + 4



Вы не можете начинать темы
Вы не можете отвечать на сообщения
Вы не можете редактировать свои сообщения
Вы не можете удалять свои сообщения
Вы не можете голосовать в опросах
Вы не можете прикреплять файлы к сообщениям
Вы не можете скачивать файлы