Ах! Подруга... / Snegithiye (Приядаршан / Priyadarshan) [2000, Индия, драма, комедия, приключения, детектив, музыка, DVDRip] DVO (DeadSno & den904)

Ответить на тему
 
Автор Сообщение

user ®

Стаж: 12 лет

Сообщений: 15092

Пост Пост: #1 от 05-Авг-2014 15:30

[Цитировать]

Ах! Подруга... / Snegithiye
Страна: Индия
Жанр: драма, комедия, приключения, детектив, музыка
Год выпуска: 2000
Продолжительность: 02:34:11
Перевод: Любительский (двухголосый закадровый) DeadSno & den904
Перевод на русский язык Antonio, работа со звуком Samael
Cубтитры: нет
Оригинальная аудиодорожка: тамильский, английский
Режиссер: Приядаршан / Priyadarshan
В ролях: Джотика, Шарбани Мукерджи, Табу, Лакшми Нарайан, Ишита Арун, Сукумари, Манорама, Бхарати Ачрекар, Манаси Скотт, Мита Васишт
Описание: Вани, её лучшая подруга Радика другие подружки - студентки-хулиганки. Они поют песни, нарушают правила и доставляют немало хлопот окружающим. У них есть и враг - Гита, богатая студентка. Лакшми, тётя Радики, хочет побыстрее выдать племянницу замуж. Чтобы избежать нежелательной свадьбы, Вани и Радика выдумывают историю про бойфренда по имени Рамеш. Однако их фантазии обретают совершенно другой смысл, когда человек по имени Рамеш начинает звонить и слать Радике любовные письма...
Сэмпл: http://multi-up.com/
Качество видео: DVDRip
Формат видео: AVI
Видео: DivX 5 720x404 29.97fps 1800Kbps
Аудио 1: Dolby AC3 48000Hz 6 Audio Channel 448Kbps [русский]
Аудио 2: Dolby AC3 48000Hz 6 Audio Channel 448Kbps [английский]
MediaInfo
General
Complete name : D:\TORRENTS\АхПодруга.avi
Format : AVI
Format/Info : Audio Video Interleave
Format profile : OpenDML
File size : 2.92 GiB
Duration : 2h 34mn
Overall bit rate : 2 716 Kbps
Writing application : VirtualDubMod 1.5.10.2 (build 2540/release)
Writing library : VirtualDubMod build 2540/release
Video
ID : 0
Format : MPEG-4 Visual
Format profile : Simple@L1
Format settings, BVOP : No
Format settings, QPel : No
Format settings, GMC : No warppoints
Format settings, Matrix : Default (H.263)
Codec ID : DX50
Codec ID/Hint : DivX 5
Duration : 2h 34mn
Bit rate : 1 800 Kbps
Width : 720 pixels
Height : 404 pixels
Display aspect ratio : 16:9
Frame rate : 29.970 fps
Color space : YUV
Chroma subsampling : 4:2:0
Bit depth : 8 bits
Scan type : Progressive
Compression mode : Lossy
Bits/(Pixel*Frame) : 0.207
Stream size : 1.94 GiB (66%)
Writing library : DigiArty AV Encoder Core
Audio #1
ID : 1
Format : AC-3
Format/Info : Audio Coding 3
Mode extension : CM (complete main)
Format settings, Endianness : Big
Codec ID : 2000
Duration : 2h 34mn
Bit rate mode : Constant
Bit rate : 448 Kbps
Channel(s) : 6 channels
Channel positions : Front: L C R, Side: L R, LFE
Sampling rate : 48.0 KHz
Bit depth : 16 bits
Compression mode : Lossy
Stream size : 494 MiB (16%)
Alignment : Split accross interleaves
Interleave, duration : 33 ms (1.00 video frame)
Interleave, preload duration : 500 ms
Audio #2
ID : 2
Format : AC-3
Format/Info : Audio Coding 3
Mode extension : CM (complete main)
Format settings, Endianness : Big
Codec ID : 2000
Duration : 2h 34mn
Bit rate mode : Constant
Bit rate : 448 Kbps
Channel(s) : 6 channels
Channel positions : Front: L C R, Side: L R, LFE
Sampling rate : 48.0 KHz
Bit depth : 16 bits
Compression mode : Lossy
Stream size : 494 MiB (16%)
Alignment : Split accross interleaves
Interleave, duration : 33 ms (1.00 video frame)
Interleave, preload duration : 500 ms
Скриншот c названием фильма Скриншоты
Скачать

Скачать торрент! Ах! Подруга... / Snegithiye (Приядаршан / Priyadarshan) [2000, Индия, драма, комедия, приключения, детектив, музыка, DVDRip] DVO (DeadSno & den904)

Как скачивать? · Что такое торрент? · Рейтинг и ограничения

Сайт не распространяет и не хранит электронные версии произведений, а лишь предоставляет доступ к создаваемому пользователями каталогу ссылок на торрент-файлы, которые содержат только списки хеш-сумм

[Профиль] [ЛС]
Показать сообщения:    
Ответить на тему

Текущее время: Сегодня 16:20

Часовой пояс: GMT + 4



Вы не можете начинать темы
Вы не можете отвечать на сообщения
Вы не можете редактировать свои сообщения
Вы не можете удалять свои сообщения
Вы не можете голосовать в опросах
Вы не можете прикреплять файлы к сообщениям
Вы не можете скачивать файлы