Жена Сэйсю Ханаока / The Wife of Seishu Hanaoka / Hanaoka Seishu no tsuma (Ясудзо Масумура / Yasuzo Masumura) [1967, Япония, драма, DVDRip] (Rus) (Eng) + Sub

Ответить на тему
 
Автор Сообщение

user ®

Стаж: 13 лет

Сообщений: 15071

Пост Пост: #1 от 04-Авг-2014 01:00

[Цитировать]

Жена Сэйсю Ханаока / The Wife of Seishu Hanaoka / Hanaoka Seishu no tsuma / 華岡青洲の妻
Страна: Япония
Жанр: драма
Год выпуска: 1967
Продолжительность: 01:38:59
Перевод 1: Субтитры русские - дед_сто_лет©
Перевод 2: Субтитры английские
Оригинальная аудиодорожка: японский
Режиссер: Ясудзо Масумура / Yasuzo Masumura
Автор сценария: Канэто СИНДО / Kaneto SHINDO
В ролях: Райдзо ИТИКАВА, Аяко ВАКАО, Хидэко ТАКАМИНЭ, Ёноскэ ИТО, Мисако ВАТАНАБЭ, Тисако ХАРА, Тиэко НАНИВА, Такэтоси НАЙТО, Сабуро ДАТЭ, Ёити ФУНАКИ, Гэн КИМУРА, Сёдзо НАМБУ, Кэндзо ТАБУ, Яцуко ТАНЪАМИ, Харуко СУГИМУРА
Описание: В фильме рекоструируется жизнь реального человека Сэйсю Ханаока (華岡 青洲, 1760–1835), который в 1805 году впервые в мире провел документированную операцию под общим обезболиванием, хотя его метод был основан на китайских рецептах 2000 летней давности. Никакого отношения к современному наркозу этот метод не имеет. Современный ингаляционный наркоз появился в Америке в 1842-1846 годах, а в 1847 году русский хирург Пирогов начал активно использовать его при операциях в военно-полевых условиях.
Автор сценария Канэто СИНДО представил эту историю, как психологический конфликт, в котором мать главного героя Оцуги и его жена Каэ сражаются не на жизнь, а на смерть за любовь этого мужчины. Фильм может не понравиться тем, кого смущают медицинские подробности, жестокие эксперименты на животных, разлагающиеся опухоли и гной. Остальным желаю приятного просмотра.
> > > > >
Качество видео: DVDRip
Формат видео: AVI
Видео: 720x320 (2.25:1), 23.976 fps, XviD build 50 ~1896 kbps avg, 0.34 bit/pixel
Аудио: 48 kHz, MPEG Layer 3, 2 ch, ~192.00 kbps avg
Формат субтитров: softsub (SRT)
Доп. информация о субтитрах: дед_сто_лет
Пример субтитров
257
00:33:25,303 --> 00:33:27,977
Умпэй-сан ждет тебя.
258
00:33:42,121 --> 00:33:45,192
Умпэй-сан, пришел Ёнэдзиро.
259
00:33:47,025 --> 00:33:50,598
Какие миленькие.
260
00:33:56,067 --> 00:33:58,069
О, ты принес мне много кошек!
261
00:33:59,204 --> 00:34:03,152
С этими дождями совсем нет риса.
Еды для людей не хватает.
262
00:34:03,275 --> 00:34:05,755
Они с радостью отдали мне своих кошек.
263
00:34:05,877 --> 00:34:08,983
Собаки и кошки мне нужны,
чтобы спасать людей.
264
00:34:09,080 --> 00:34:11,060
Собери столько, сколько сможешь.
265
00:34:11,984 --> 00:34:16,488
Каэ, возьми. Корми их
и заботься о них хорошенько.
266
00:34:16,621 --> 00:34:17,497
Я всё сделаю.
267
00:35:12,377 --> 00:35:14,379
Все умерли!
268
00:35:15,780 --> 00:35:18,454
Слишком много Мандара.
269
00:35:50,815 --> 00:35:53,762
Сестра, Каэ плохо...
270
00:35:59,624 --> 00:36:01,467
Каэ, что с тобой?
271
00:36:02,794 --> 00:36:05,968
Каэ-сан беременна.
272
00:36:07,565 --> 00:36:10,637
Вот как? Это замечательно.
273
00:36:16,274 --> 00:36:20,381
Дожди идут и идут.
274
00:36:20,912 --> 00:36:25,190
Два года непрерывных дождей.
Цены на рис выросли вдвое.
275
00:36:25,350 --> 00:36:28,194
По всей стране сотни тысяч людей...
276
00:36:28,320 --> 00:36:30,129
... умерли с голода.
277
00:36:30,288 --> 00:36:32,268
Ужасно.
278
00:36:33,024 --> 00:36:36,301
От дождей рис сгнил
и реки вышли из берегов...
279
00:36:36,394 --> 00:36:38,738
От этого всего распространились
необычные болезни.
MediaInfo
General
Complete name : C:\Torrents\[ASIA]\The.Wife.of.Seishu.Hanaoka.(1967)Yasuzo.Masumura\The.Wife.of.Seishu.Hanaoka.(1967)Yasuzo.Masumura.avi
Format : AVI
Format/Info : Audio Video Interleave
File size : 1.45 GiB
Duration : 1h 38mn
Overall bit rate : 2 098 Kbps
Writing application : VirtualDubMod 1.5.4.1 (build 2178/release)
Writing library : VirtualDub-MPEG2 build 24600/release
Video
ID : 0
Format : MPEG-4 Visual
Format profile : Advanced Simple@L5
Format settings, BVOP : No
Format settings, QPel : No
Format settings, GMC : No warppoints
Format settings, Matrix : Custom
Codec ID : XVID
Codec ID/Hint : XviD
Duration : 1h 38mn
Bit rate : 1 897 Kbps
Width : 720 pixels
Height : 320 pixels
Display aspect ratio : 2.25:1
Frame rate : 23.976 fps
Color space : YUV
Chroma subsampling : 4:2:0
Bit depth : 8 bits
Scan type : Progressive
Compression mode : Lossy
Bits/(Pixel*Frame) : 0.343
Stream size : 1.31 GiB (90%)
Writing library : XviD 1.2.1 (UTC 2008-12-04)
Audio
ID : 1
Format : MPEG Audio
Format version : Version 1
Format profile : Layer 3
Mode : Joint stereo
Mode extension : MS Stereo
Codec ID : 55
Codec ID/Hint : MP3
Duration : 1h 38mn
Bit rate mode : Constant
Bit rate : 192 Kbps
Channel(s) : 2 channels
Sampling rate : 48.0 KHz
Compression mode : Lossy
Stream size : 136 MiB (9%)
Alignment : Aligned on interleaves
Interleave, duration : 42 ms (1.00 video frame)
Interleave, preload duration : 504 ms
Writing library : LAME3.98r
Encoding settings : -m j -V 4 -q 2 -lowpass 18.6 -b 192
Скриншот c названием фильма Скриншоты
Скачать

Скачать торрент! Жена Сэйсю Ханаока / The Wife of Seishu Hanaoka / Hanaoka Seishu no tsuma (Ясудзо Масумура / Yasuzo Masumura) [1967, Япония, драма, DVDRip] (Rus) (Eng) + Sub

Как скачивать? · Что такое торрент? · Рейтинг и ограничения

Сайт не распространяет и не хранит электронные версии произведений, а лишь предоставляет доступ к создаваемому пользователями каталогу ссылок на торрент-файлы, которые содержат только списки хеш-сумм

[Профиль] [ЛС]
Показать сообщения:    
Ответить на тему

Текущее время: Сегодня 18:20

Часовой пояс: GMT + 4



Вы не можете начинать темы
Вы не можете отвечать на сообщения
Вы не можете редактировать свои сообщения
Вы не можете удалять свои сообщения
Вы не можете голосовать в опросах
Вы не можете прикреплять файлы к сообщениям
Вы не можете скачивать файлы