Как я похудел на 21 грамм (Павел Сухих, Константин Комардин) [2013, мультфильм для взрослых, WEBRip-AVC 720p]

Ответить на тему
 
Автор Сообщение

user ®

Стаж: 7 лет 7 месяцев

Сообщений: 20008

Пост Пост: #1 от 29-Июл-2014 00:55

[Цитировать]

Как я похудел на 21 грамм
Страна: Россия
Производство: Фонд "Губерния"
Жанр: мультфильм для взрослых
Продолжительность: 00:18:14
Год выпуска: 2013
Русские субтитры: нет
Режиссёр: Павел Сухих, Константин Комардин
Роли озвучивали: Павел Сухих, Вадим Демчог
Описание: Философская притча об отношениях художника и его души, показанных на фоне «диких» перестроечных лет.
Доп. информация: Фильм участвует в конкурсной программе фестиваля Суздаль-2014
Качество: WEBRip-AVC 720p
Формат: MP4
Видео: 1280x720 AVC, 25 fps, ~2611 kbps, 0.113 bit/pixel
Аудио: 44.1 kHz, AAC, 2 ch, ~192.00 kbps
Субтитры: Отсутствуют

Подробные технические данные
GeneralComplete name : E:\1\мультики\Как я похудел на 21 грамм.mp4Format : MPEG-4Format profile : Base Media / Version 2Codec ID : mp42File size : 366 MiBDuration : 18mn 14sOverall bit rate mode : VariableOverall bit rate : 2 806 KbpsEncoded date : UTC 2014-06-30 09:55:33Tagged date : UTC 2014-06-30 09:55:33gsst : 0gstd : 1094053gssd : BADC23AA6HH1405843369943198gshh : r6---sn-n8v7lnee.googlevideo.com
VideoID : 1Format : AVCFormat/Info : Advanced Video CodecFormat profile : High@L3.1Format settings, CABAC : YesFormat settings, ReFrames : 1 frameCodec ID : avc1Codec ID/Info : Advanced Video CodingDuration : 18mn 14sBit rate : 2 611 KbpsMaximum bit rate : 7 621 KbpsWidth : 1 280 pixelsHeight : 720 pixelsDisplay aspect ratio : 16:9Frame rate mode : ConstantFrame rate : 25.000 fpsColor space : YUVChroma subsampling : 4:2:0Bit depth : 8 bitsScan type : ProgressiveBits/(Pixel*Frame) : 0.113Stream size : 341 MiB (93%)Tagged date : UTC 2014-06-30 09:58:11
AudioID : 2Format : AACFormat/Info : Advanced Audio CodecFormat profile : LCCodec ID : 40Duration : 18mn 14sBit rate mode : VariableBit rate : 192 KbpsMaximum bit rate : 201 KbpsChannel count : 2 channelsChannel positions : Front: L RSampling rate : 44.1 KHzCompression mode : LossyStream size : 25.0 MiB (7%)Title : IsoMedia File Produced by Google, 5-11-2011Encoded date : UTC 2014-06-30 09:57:22Tagged date : UTC 2014-06-30 09:58:11
Скриншоты
Скачать

Скачать торрент!

Как скачивать? · Что такое торрент? · Рейтинг и ограничения

Сайт не распространяет и не хранит электронные версии произведений, а лишь предоставляет доступ к создаваемому пользователями каталогу ссылок на торрент-файлы, которые содержат только списки хеш-сумм

[Профиль] [ЛС]
Показать сообщения:    
Ответить на тему

Текущее время: Сегодня 07:53

Часовой пояс: GMT + 4



Вы не можете начинать темы
Вы не можете отвечать на сообщения
Вы не можете редактировать свои сообщения
Вы не можете удалять свои сообщения
Вы не можете голосовать в опросах
Вы не можете прикреплять файлы к сообщениям
Вы не можете скачивать файлы