Гонконгские истории о призраках / Hong Kong Ghost Stories / Mang gwai oi ching goo si (Патрик Конг / Patrick Kong, Цзин Вон / Jing Wong) [2011, Гонконг, ужасы, HDRip] DVO (den904 & DeadSno)

Ответить на тему
 
Автор Сообщение

user ®

Стаж: 13 лет

Сообщений: 15071

Пост Пост: #1 от 27-Июл-2014 15:25

[Цитировать]

Гонконгские истории о призраках / Hong Kong Ghost Stories / Mang gwai oi ching goo si
Страна: Гонконг
Жанр: ужасы
Год выпуска: 2011
Продолжительность: 01:36:59
Перевод: Любительский (двухголосый закадровый) den904 & DeadSno
Cубтитры: нет
Режиссер: Патрик Конг / Patrick Kong, Цзин Вон / Jing Wong
В ролях: Хриси Чау Сау-на, Хим Лав, Дженифер Цэ Тинг-Тинг, Сэмми, Джина Ху Пуи-Ю, Пакху Чоу Пак-ху, Кимми Тонг
Описание: Бобо погибла в автомобильной катастрофе, когда отправилась в Таиланд. Она была сиротой. Подозревали, что она беременна. Перед своей смертью она звонила своим друзьям и говорила, что хочет покончить жизнь самоубийством. И вот, на похоронах всего четверо близких людей: Черил, Минди, Пн и Харит…
Сэмпл: http://multi-up.com/988853
Качество видео: HDRip (BDRip 720p)
Формат видео: AVI
Видео: XviD, 1943 Kbps, 720 х400 pixels, 24.000 fps
Аудио: AC3, 192 Kbps, 2 channels, Front: L R, 48.0 KHz, 16 bits

MediaInfo
General
Complete name : D:\Hong.Kong.Ghost.Stories.2011.HDRip.1.45Gb.avi
Format : AVI
Format/Info : Audio Video Interleave
File size : 1.45 GiB
Duration : 1h 36mn
Overall bit rate : 2 145 Kbps
Writing application : VirtualDubMod 1.5.10.3 | www.virtualdub-fr.org || (build 2550/release)
Writing library : VirtualDubMod build 2550/release
Video
ID : 0
Format : MPEG-4 Visual
Format profile : Advanced Simple@L5
Format settings, BVOP : Yes
Format settings, QPel : No
Format settings, GMC : No warppoints
Format settings, Matrix : Default (MPEG)
Codec ID : XVID
Codec ID/Hint : XviD
Duration : 1h 36mn
Bit rate : 1 943 Kbps
Width : 720 pixels
Height : 400 pixels
Display aspect ratio : 16:9
Frame rate : 24.000 fps
Color space : YUV
Chroma subsampling : 4:2:0
Bit depth : 8 bits
Scan type : Progressive
Compression mode : Lossy
Bits/(Pixel*Frame) : 0.281
Stream size : 1.32 GiB (91%)
Writing library : XviD 73
Audio
ID : 1
Format : AC-3
Format/Info : Audio Coding 3
Mode extension : CM (complete main)
Format settings, Endianness : Big
Codec ID : 2000
Duration : 1h 36mn
Bit rate mode : Constant
Bit rate : 192 Kbps
Channel(s) : 2 channels
Channel positions : Front: L R
Sampling rate : 48.0 KHz
Bit depth : 16 bits
Compression mode : Lossy
Stream size : 133 MiB (9%)
Alignment : Split accross interleaves
Interleave, duration : 42 ms (1.00 video frame)
Interleave, preload duration : 500 ms
Скриншот c названием фильма Скриншоты
Скачать

Скачать торрент! Гонконгские истории о призраках / Hong Kong Ghost Stories / Mang gwai oi ching goo si (Патрик Конг / Patrick Kong, Цзин Вон / Jing Wong) [2011, Гонконг, ужасы, HDRip] DVO (den904 & DeadSno)

Как скачивать? · Что такое торрент? · Рейтинг и ограничения

Сайт не распространяет и не хранит электронные версии произведений, а лишь предоставляет доступ к создаваемому пользователями каталогу ссылок на торрент-файлы, которые содержат только списки хеш-сумм

[Профиль] [ЛС]
Показать сообщения:    
Ответить на тему

Текущее время: Сегодня 16:56

Часовой пояс: GMT + 4



Вы не можете начинать темы
Вы не можете отвечать на сообщения
Вы не можете редактировать свои сообщения
Вы не можете удалять свои сообщения
Вы не можете голосовать в опросах
Вы не можете прикреплять файлы к сообщениям
Вы не можете скачивать файлы