Урок любви / Love Lesson / Fancy Walk (Ко Гён А / Ko Kyeong Ah) [2013, Южная Корея, драма, эротика, HDRip] MVO (STEPonee)

Ответить на тему
 
Автор Сообщение

user ®

Стаж: 13 лет

Сообщений: 15071

Пост Пост: #1 от 24-Июл-2014 11:25

[Цитировать]

Урок любви / Love Lesson / Fancy Walk / 화려한 외출 / Hwa-rye-on-han oe-chul
Год выпуска: 2013
Страна: Южная Корея
Жанр: драма, эротика
Продолжительность: 01:24:01
Перевод: любительский (многоголосый закадровый) [STEPonee]

Русские субтитры: нет
Режиссёр: Ко Гён А (Ko Kyeong Ah)
В ролях:
  • Ким Сон Ён (Kim Sun Young) - Хи Су
  • Бён Чжун Сок (Byun Joon Suk) - Сын Хо
  • О Чо Хи (Oh Cho Hee) - подруга Сын Хо
  • Нам Тхе Бу (Nam Tae Boo) - Бом Су
  • Мин Чжи Хёк (Min Ji Hyuk) - Чжун Хо
    Фильм содержит эротические сцены и не рекомендуется к просмотру лицам до 18 лет
    Описание
    Молодая и красивая Хи Су, в общем, довольна своей жизнью: хиты вроде сочиняются (она композитор), продюсер вроде находит исполнителей, что-то выпускает, и любовники у неё вроде ничего. Но именно что "вроде". Она чувствуепт, что жизнь становится пресной, перестаёт доставлять удовольствие, да и творческий запал, похоже начинает затихать - Хи Су всё чаще обвиняют в плагиате. И тут случай сводит её с юным студентом художественной школы, будущим художником. И отношения с ним, как надеется Хи Су, должны заново раскрасить её жизнь.
    Сэмпл
    Роли озвучивали:
  • Евгений Одинов
  • Анна Атмасова
  • Юрий Балякин
  • Наталья Скребнева
    Перевод на русский язык: ФСГ "Азалии"
    Скриншот c названием фильма
Качество: HDRip (HDRip-AVC 720p)
Формат: AVI
Видео: XviD, 720x400 (16:9), 23,976 к/с, 2199 кбит/с
Аудио: MP3 2.0, 48 кГц, 192 кбит/с
Отчёт MediaInfo
General
Complete name : Love.Lesson.2013.HDRip.XviD.400p.MP3.MVO.STEPonee.avi
Format : AVI
Format/Info : Audio Video Interleave
File size : 1.41 GiB
Duration : 1h 24mn
Overall bit rate : 2 401 Kbps
Writing application : VirtualDubMod 1.5.10.2 (build 2542/release)
Writing library : VirtualDubMod build 2542/release
Video
ID : 0
Format : MPEG-4 Visual
Format profile : Advanced Simple@L5
Format settings, BVOP : 1
Format settings, QPel : No
Format settings, GMC : No warppoints
Format settings, Matrix : Default (MPEG)
Codec ID : XVID
Codec ID/Hint : XviD
Duration : 1h 24mn
Bit rate : 2 199 Kbps
Width : 720 pixels
Height : 400 pixels
Display aspect ratio : 16:9
Frame rate : 23.976 fps
Color space : YUV
Chroma subsampling : 4:2:0
Bit depth : 8 bits
Scan type : Progressive
Compression mode : Lossy
Bits/(Pixel*Frame) : 0.319
Stream size : 1.29 GiB (92%)
Writing library : XviD 1.2.1 (UTC 2008-12-04)
Audio
ID : 1
Format : MPEG Audio
Format version : Version 1
Format profile : Layer 3
Mode : Joint stereo
Mode extension : MS Stereo
Codec ID : 55
Codec ID/Hint : MP3
Duration : 1h 24mn
Bit rate mode : Constant
Bit rate : 192 Kbps
Channel(s) : 2 channels
Sampling rate : 48.0 KHz
Compression mode : Lossy
Stream size : 115 MiB (8%)
Alignment : Aligned on interleaves
Interleave, duration : 42 ms (1.00 video frame)
Interleave, preload duration : 504 ms
Скриншоты Подготовка релиза:
  • Юрий Балякин - адаптация субтитров, обработка звука, монтаж
  • Екатерина Проц - постер
    Все раздачи студии
[url=http://***/forum/tracker.php?nm=steponee]Все разделы[/url]
[url=http://***/forum/tracker.php?f=915&nm=steponee]Корейские сериалы[/url]
[url=http://***/forum/tracker.php?f=1939&nm=steponee]Японские сериалы[/url]
[url=http://***/forum/tracker.php?f=2412&nm=steponee]Прочие азиатские сериалы[/url]
[url=http://***/forum/tracker.php?f=934&nm=steponee]Азиатские фильмы[/url]
[url=http://***/forum/tracker.php?rid=2669478/]Мои переводы и раздачи[/url]
Скачать

Скачать торрент! Урок любви / Love Lesson / Fancy Walk (Ко Гён А / Ko Kyeong Ah) [2013, Южная Корея, драма, эротика, HDRip] MVO (STEPonee)

Как скачивать? · Что такое торрент? · Рейтинг и ограничения

Сайт не распространяет и не хранит электронные версии произведений, а лишь предоставляет доступ к создаваемому пользователями каталогу ссылок на торрент-файлы, которые содержат только списки хеш-сумм

[Профиль] [ЛС]
Показать сообщения:    
Ответить на тему

Текущее время: Сегодня 16:04

Часовой пояс: GMT + 4



Вы не можете начинать темы
Вы не можете отвечать на сообщения
Вы не можете редактировать свои сообщения
Вы не можете удалять свои сообщения
Вы не можете голосовать в опросах
Вы не можете прикреплять файлы к сообщениям
Вы не можете скачивать файлы