Везучая (Роман Просвирнин) [2013, Россия, мелодрама, HDTVRip 720p]

Ответить на тему
 
Автор Сообщение

user ®

Стаж: 7 лет 7 месяцев

Сообщений: 20008

Пост Пост: #1 от 19-Июл-2014 20:15

[Цитировать]

Везучая
Выпущено: Россия, кинокомпания «Русское»
Жанр: мелодрама
Год выпуска: 2013
Продолжительность: 01:31:35
Субтитры: нет
Режиссер: Роман Просвирнин
В ролях: Елена Лядова, Алексей Зубков, Юлия Беретта, Александр Наумов, Сергей Погосян, Александр Бобров, Евгения Чиркова, Алёна Яковлева, Александр Суворов, Сергей Гусинский, Людмила Чиркова, Тутта Ларсен, Вячеслав Буцков, Таисия Ручковская, Андрей Селиванов
Описание: Ирина Боярова – олимпийская чемпионка по бегу. У нее нет ни семьи, ни друзей – вся жизнь героини посвящена спорту. Однажды на курорте у Ирины завязывается роман с врачом Димой. Оба понимают, что их отношения серьёзны, но, по стечению обстоятельств, влюбленные разлучаются, не объяснившись друг с другом.. Вскоре Ирина понимает, что беременна. Она приезжает к Диме домой, чтобы сообщить радостную новость, но ее радужные надежды в одночасье рушатся…

Автор рипа / записи: fanatus
Исходник: Запись с телеканала РОССИЯ HD
Качество: HDTVRip 720p
Формат: MKV
Видео кодек: H.264
Аудио кодек: AC3
Видео: MPEG-4 AVC, 3555 kbps , 1280x720 (16:9), 25.000 fps, 0.154 bit/pixel
Аудио: AC3, 2 ch, 48 kHz, 192 kbps
Доп. информация MediaInfo
General
Unique ID : 192740937203120748521669960392332094191 (0x91008DE31F8A0FB99DCAC22F348D2AEF)
Complete name : E:\Vezuchaja.2013.x264.HDTVRip.720p.fanatus.mkv
Format : Matroska
Format version : Version 2
File size : 2.40 GiB
Duration : 1h 31mn
Overall bit rate : 3 748 Kbps
Movie name : Vezuchaja (2013) - fanatus
Encoded date : UTC 2014-06-22 13:07:37
Writing application : mkvmerge v3.4.0 ('Rapunzel') сборка от May 15 2010 09:38:20
Writing library : libebml v0.8.0 + libmatroska v0.9.0
Video
ID : 1
Format : AVC
Format/Info : Advanced Video Codec
Format profile : High@L4.1
Format settings, CABAC : Yes
Format settings, ReFrames : 8 frames
Codec ID : V_MPEG4/ISO/AVC
Duration : 1h 31mn
Bit rate : 3 555 Kbps
Width : 1 280 pixels
Height : 720 pixels
Display aspect ratio : 16:9
Frame rate : 25.000 fps
Color space : YUV
Chroma subsampling : 4:2:0
Bit depth : 8 bits
Scan type : Progressive
Bits/(Pixel*Frame) : 0.154
Stream size : 2.23 GiB (93%)
Title : Vezuchaja (2013) HDTVRip_720p
Writing library : x264 core 142 r2409 d6b4e63
Encoding settings : cabac=1 / ref=8 / deblock=1:-2:-2 / analyse=0x3:0x113 / me=umh / subme=10 / psy=1 / psy_rd=1.00:0.10 / mixed_ref=1 / me_range=32 / chroma_me=1 / trellis=2 / 8x8dct=1 / cqm=0 / deadzone=21,11 / fast_pskip=0 / chroma_qp_offset=-3 / threads=16 / lookahead_threads=2 / sliced_threads=0 / nr=0 / decimate=0 / interlaced=0 / bluray_compat=0 / constrained_intra=0 / bframes=9 / b_pyramid=2 / b_adapt=2 / b_bias=0 / direct=3 / weightb=1 / open_gop=0 / weightp=2 / keyint=250 / keyint_min=25 / scenecut=40 / intra_refresh=0 / rc=2pass / mbtree=0 / bitrate=3555 / ratetol=1.0 / qcomp=0.65 / qpmin=0 / qpmax=69 / qpstep=4 / cplxblur=20.0 / qblur=0.5 / ip_ratio=1.40 / pb_ratio=1.30 / aq=1:0.90
Language : Russian
Default : Yes
Forced : No
Audio
ID : 2
Format : AC-3
Format/Info : Audio Coding 3
Mode extension : CM (complete main)
Format settings, Endianness : Big
Codec ID : A_AC3
Duration : 1h 31mn
Bit rate mode : Constant
Bit rate : 192 Kbps
Channel(s) : 2 channels
Channel positions : Front: L R
Sampling rate : 48.0 KHz
Bit depth : 16 bits
Compression mode : Lossy
Stream size : 126 MiB (5%)
Language : Russian
Default : Yes
Forced : No
Скриншот c названием фильма Скриншоты
Скачать

Скачать торрент!

Как скачивать? · Что такое торрент? · Рейтинг и ограничения

Сайт не распространяет и не хранит электронные версии произведений, а лишь предоставляет доступ к создаваемому пользователями каталогу ссылок на торрент-файлы, которые содержат только списки хеш-сумм

[Профиль] [ЛС]
Показать сообщения:    
Ответить на тему

Текущее время: Сегодня 13:49

Часовой пояс: GMT + 4



Вы не можете начинать темы
Вы не можете отвечать на сообщения
Вы не можете редактировать свои сообщения
Вы не можете удалять свои сообщения
Вы не можете голосовать в опросах
Вы не можете прикреплять файлы к сообщениям
Вы не можете скачивать файлы