Кодовое имя: Шакал / Code name: Jackal / The Jakal Is Coming / Jakali onda (Пэ Хён Джун / Bae Hyeong-joon) [2012, Южная Корея, комедия, криминал, HDRip] DVO (GREEN TEA)

Ответить на тему
 
Автор Сообщение

user ®

Стаж: 13 лет

Сообщений: 15071

Пост Пост: #1 от 14-Июл-2014 19:45

[Цитировать]

Кодовое имя: Шакал / Code name: Jackal / The Jakal Is Coming / Jakali onda
Страна: Южная Корея
Жанр: комедия, криминал
Год выпуска: 2012
Продолжительность: 01:47:32
Перевод: Любительский (двухголосый закадровый) GREEN TEA
Cубтитры: нет
Режиссер: Пэ Хён Джун / Bae Hyeong-joon
В ролях: Сон Чи Хё, Ким Чжэ Хун, О Дар Су, Хан Сан Чин, Ким Ён Гон
Описание: По отелю «Paradise» в Сон-Джу снуют полицейские, здесь по оперативным данным должна появиться легендарный киллер Пон Мин Чон по кличке «Шакал», а за ее поимку объявлена награда в сто миллионов. В этом же отеле остановился и суперзвезда Чхве Хён. Ведь очередным заказом Шакала является именно он. Но для девушки это последний заказ - она решила завязать. Заманив певца в ловушку, киллер похищает его. В этот раз у нее странное задание, она должна свести мужчину с ума. Но теперь девушка не знает как быть, поняв, что жертва - тот певец, которым она так восхищается, и чьей ярой фанаткой является. А Чхве Хён догадался, что клиентом его похитительницы является его бывшая подружка Анжела. В то время, когда Анжела появилась в номере, чтобы полюбоваться на парня, ставшего теперь ее игрушкой, она была неумышленно убита Мин Чон. А вот тут начинается самое интересное, ведь Хён решает помочь девушке выпутаться из затруднительного положения…
Сэмпл: http://multi-up.com/986303
Качество видео: HDRip - BDRip 720p
Формат видео: AVI
Видео: XviD, 833 kbps, 640 х 272 pixels, 23.976 fps
Аудио: MP3, 128 Kbps, 2 channels, 48.0 KHz

MediaInfo
General
Complete name : D:\Codename.Jackal.2012.HDRip.745Mb.avi
Format : AVI
Format/Info : Audio Video Interleave
File size : 746 MiB
Duration : 1h 47mn
Overall bit rate : 970 Kbps
Writing application : VirtualDubMod 1.5.10.3 | www.virtualdub-fr.org || (build 2550/release)
Writing library : VirtualDubMod build 2550/release
Video
ID : 0
Format : MPEG-4 Visual
Format profile : Advanced Simple@L5
Format settings, BVOP : Yes
Format settings, QPel : No
Format settings, GMC : No warppoints
Format settings, Matrix : Custom
Codec ID : XVID
Codec ID/Hint : XviD
Duration : 1h 47mn
Bit rate : 833 Kbps
Width : 640 pixels
Height : 272 pixels
Display aspect ratio : 2.35:1
Frame rate : 23.976 fps
Color space : YUV
Chroma subsampling : 4:2:0
Bit depth : 8 bits
Scan type : Progressive
Compression mode : Lossy
Bits/(Pixel*Frame) : 0.200
Stream size : 640 MiB (86%)
Writing library : XviD 73
Audio
ID : 1
Format : MPEG Audio
Format version : Version 1
Format profile : Layer 3
Codec ID : 55
Codec ID/Hint : MP3
Duration : 1h 47mn
Bit rate mode : Constant
Bit rate : 128 Kbps
Channel(s) : 2 channels
Sampling rate : 48.0 KHz
Compression mode : Lossy
Stream size : 98.4 MiB (13%)
Alignment : Aligned on interleaves
Interleave, duration : 42 ms (1.00 video frame)
Interleave, preload duration : 504 ms
Writing library : LAME3.99r
Encoding settings : -m s -V 4 -q 2 -lowpass 17 -b 128
Скриншот c названием фильма Скриншоты
Скачать

Скачать торрент! Кодовое имя: Шакал / Code name: Jackal / The Jakal Is Coming / Jakali onda (Пэ Хён Джун / Bae Hyeong-joon) [2012, Южная Корея, комедия, криминал, HDRip] DVO (GREEN TEA)

Как скачивать? · Что такое торрент? · Рейтинг и ограничения

Сайт не распространяет и не хранит электронные версии произведений, а лишь предоставляет доступ к создаваемому пользователями каталогу ссылок на торрент-файлы, которые содержат только списки хеш-сумм

[Профиль] [ЛС]
Показать сообщения:    
Ответить на тему

Текущее время: Сегодня 16:10

Часовой пояс: GMT + 4



Вы не можете начинать темы
Вы не можете отвечать на сообщения
Вы не можете редактировать свои сообщения
Вы не можете удалять свои сообщения
Вы не можете голосовать в опросах
Вы не можете прикреплять файлы к сообщениям
Вы не можете скачивать файлы