Быть с вами / Я вернусь с дождём / Ima, ai ni yukimasu / Be with You (Нобухиро Дои / Nobuhiro Doi) [2004, Япония, фэнтези, драма, мелодрама, HDRip] DVO

Ответить на тему
 
Автор Сообщение

user ®

Стаж: 11 лет

Сообщений: 15151

Пост Пост: #1 от 13-Июл-2014 23:10

[Цитировать]

Быть с вами / Я вернусь с дождём / Ima, ai ni yukimasu / Be with You- -Страна: Япония
Жанр: фэнтези, драма, мелодрама
Год выпуска: 2004
Продолжительность: 01:58:53-Перевод: Любительский (двухголосый закадровый) [Kasumi & Стефан]-Cубтитры: нет
Оригинальная аудиодорожка: нет
Режиссер: Нобухиро Дои / Nobuhiro Doi
В ролях: Юко Такэути, Шидо Накамура, Акаши Такей, Карен Мияма, Йосуке Ашари, Юта Хираока, Чихиро Оцука, Микако Итикава, Кацуо Накамура...
Описание: После смерти Мио ее муж и шестилетний сын остаются совсем одни. Муж думает, что жена умерла из-за его дурного характера и слабого здоровья, а сын винит в смерти матери себя. Мать оставила сыну книжку, в которой написано, что она отправилась на далекую звезду.
Однажды вечером, во время прогулки, отец и сын замечают под деревом женщину, которая прячется от дождя. Внезапно они понимают, что это, возможно, Мио. Женщина не помнит, откуда она и кто она, но она начинает играть роль умершей Мио. Мальчик считает, что книжка, которую он нашел — это машина времени, от которой зависит присутствие рядом этой женщины, и он очень боится потерять ее.
Релиз от -
Качество видео: HDRip
Формат видео: AVI
Видео: MPEG-4 Visual at 743 Кбит/сек; 656 x 352 (1.864) at 23.976 fps
Аудио: MPEG Audio at 128 Кбит/сек; 2 канала, 48,0 КГц
Автор -
MediaInfo
Общее
Полное имя : D:\Фильмы\Азиатские\Быть с вами\Be with You.2004.HDRip.XviD.745MB. rip by [Assassin's Creed].avi
Формат : AVI
Формат/Информация : Audio Video Interleave
Размер файла : 749 Мбайт
Продолжительность : 1 ч. 58 м.
Общий поток : 881 Кбит/сек
Программа кодирования : VirtualDubMod 1.5.10.3 | www.virtualdub-fr.org || (build 2550/release)
Библиотека кодирования : VirtualDubMod build 2550/release
Видео
Идентификатор : 0
Формат : MPEG-4 Visual
Профиль формата : Advanced Simple@L5
Параметр BVOP формата : 1
Параметр QPel формата : Нет
Параметр GMC формата : Без точки перехода
Параметр матрицы формата : Default (MPEG)
Идентификатор кодека : XVID
Идентификатор кодека/Подсказка : XviD
Продолжительность : 1 ч. 58 м.
Битрейт : 743 Кбит/сек
Ширина : 656 пикселей
Высота : 352 пикселя
Соотношение сторон : 1,85:1
Частота кадров : 23,976 кадра/сек
Цветовое пространство : YUV
Субдискретизация насыщенности : 4:2:0
Битовая глубина : 8 бит
Тип развёртки : Прогрессивная
Метод сжатия : С потерями
Бит/(Пиксели*Кадры) : 0.134
Размер потока : 632 Мбайт (84%)
Библиотека кодирования : XviD 1.2.1 (UTC 2008-12-04)
Аудио
Идентификатор : 1
Формат : MPEG Audio
Версия формата : Version 1
Профиль формата : Layer 3
Идентификатор кодека : 55
Идентификатор кодека/Подсказка : MP3
Продолжительность : 1 ч. 58 м.
Вид битрейта : Постоянный
Битрейт : 128 Кбит/сек
Каналы : 2 канала
Частота : 48,0 КГц
Метод сжатия : С потерями
Размер потока : 109 Мбайт (15%)
Выравнивание : Соединение по промежуткам
Продолжительность промежутка : 42 мс. (1,00 видеокадр)
Время предзагрузки промежутка : 504 мс.
Библиотека кодирования : LAME3.99r
Настройки программы : -m s -V 4 -q 2 -lowpass 17 -b 128
Скриншот c названием фильма Скриншоты
Скачать

Скачать торрент! Быть с вами / Я вернусь с дождём / Ima, ai ni yukimasu / Be with You (Нобухиро Дои / Nobuhiro Doi) [2004, Япония, фэнтези, драма, мелодрама, HDRip] DVO

Как скачивать? · Что такое торрент? · Рейтинг и ограничения

Сайт не распространяет и не хранит электронные версии произведений, а лишь предоставляет доступ к создаваемому пользователями каталогу ссылок на торрент-файлы, которые содержат только списки хеш-сумм

[Профиль] [ЛС]
Показать сообщения:    
Ответить на тему

Текущее время: Сегодня 12:37

Часовой пояс: GMT + 4



Вы не можете начинать темы
Вы не можете отвечать на сообщения
Вы не можете редактировать свои сообщения
Вы не можете удалять свои сообщения
Вы не можете голосовать в опросах
Вы не можете прикреплять файлы к сообщениям
Вы не можете скачивать файлы