Рискованный шаг / Chaalbaaz (Гаутам Верма / Gautam Verma) [2003, Индия, Боевик, DVDRip] DVO (Арена)

Ответить на тему
 
Автор Сообщение

user ®

Стаж: 12 лет

Сообщений: 15092

Пост Пост: #1 от 11-Июл-2014 16:55

[Цитировать]

Рискованный шаг / Chaalbaaz
Страна: Индия
Жанр: Боевик
Год выпуска: 2003
Продолжительность: 01:57:40
Перевод: Профессиональный (двухголосый закадровый) Арена
Cубтитры: нет
Режиссер: Гаутам Верма / Gautam Verma
В ролях: Митхун Чакраборти, Раджат Беди, Дипак Ширке, Рупанджали
Описание: Виджай Кханна (Митхун Чакраборти) - преуспевающий глава частной авиакомпании. Неожиданно бандиты захватывают офис его компании и требуют самолет для побега за рубеж. Акция террористов заканчивается провалом, а их главаря приговаривают к смертной казни. Для его побега необходимы большие деньги. Сообщники похищают дочь Виджая, требуя огромный выкуп. Находясь в отчаяньи, Виджай готов отдать любую сумму, но неожиданно объявляет о своем решении заплатить деньги не похитителям, а тому, кто первым сообщит о местонахождении дочери.
Сэмпл: http://multi-up.com/985650/
Качество видео: DVDRip
Формат видео: AVI
Видео: XviD build 50, 672x288 (2.33:1), 25 fps, 1637 kbps avg
Аудио: MPEG Layer 3, 48 kHz, 2/0 (L,R) ch, 128.00 kbps avg
MediaInfo
General
Complete name : D:\Riskovannyj.shag.2003.XviD.DVDRip-Dego.avi
Format : AVI
Format/Info : Audio Video Interleave
File size : 1.46 GiB
Duration : 1h 57mn
Overall bit rate : 1 775 Kbps
Writing application : VirtualDubMod 1.5.10.2 (build 2540/release)
Writing library : VirtualDubMod build 2540/release
Video
ID : 0
Format : MPEG-4 Visual
Format profile : AdvancedSimple@L5
Format settings, BVOP : Yes
Format settings, QPel : No
Format settings, GMC : No warppoints
Format settings, Matrix : Custom
Codec ID : XVID
Codec ID/Hint : XviD
Duration : 1h 57mn
Bit rate : 1 638 Kbps
Width : 672 pixels
Height : 288 pixels
Display aspect ratio : 2.35
Frame rate : 25.000 fps
Resolution : 24 bits
Colorimetry : 4:2:0
Scan type : Progressive
Bits/(Pixel*Frame) : 0.338
Stream size : 1.35 GiB (92%)
Writing library : XviD 1.2.1 (UTC 2008-12-04)
Audio
ID : 1
Format : MPEG Audio
Format version : Version 1
Format profile : Layer 3
Codec ID : 55
Codec ID/Hint : MP3
Duration : 1h 57mn
Bit rate mode : Constant
Bit rate : 128 Kbps
Channel(s) : 2 channels
Sampling rate : 48.0 KHz
Resolution : 16 bits
Stream size : 108 MiB (7%)
Alignment : Aligned on interleaves
Interleave, duration : 40 ms (1.00 video frame)
Interleave, preload duration : 504 ms
Writing library : LAME3.98r
Encoding settings : -m s -V 4 -q 2 -lowpass 17 -b 128
Скриншоты
Скачать

Скачать торрент! Рискованный шаг / Chaalbaaz (Гаутам Верма / Gautam Verma) [2003, Индия, Боевик, DVDRip] DVO (Арена)

Как скачивать? · Что такое торрент? · Рейтинг и ограничения

Сайт не распространяет и не хранит электронные версии произведений, а лишь предоставляет доступ к создаваемому пользователями каталогу ссылок на торрент-файлы, которые содержат только списки хеш-сумм

[Профиль] [ЛС]
Показать сообщения:    
Ответить на тему

Текущее время: Сегодня 17:43

Часовой пояс: GMT + 4



Вы не можете начинать темы
Вы не можете отвечать на сообщения
Вы не можете редактировать свои сообщения
Вы не можете удалять свои сообщения
Вы не можете голосовать в опросах
Вы не можете прикреплять файлы к сообщениям
Вы не можете скачивать файлы