Храм разума / Man mandir (Тапи Чанакья / Tapi Chanakya) [1971, Индия, Драма, семейный, DVDRip] VO (Nastia) + original + Sub Rus

Ответить на тему
 
Автор Сообщение

user ®

Стаж: 12 лет

Сообщений: 15092

Пост Пост: #1 от 11-Июл-2014 04:30

[Цитировать]

Храм разума / Man mandir--
Страна: Индия
Жанр: Драма, семейный
Год выпуска: 1971
Продолжительность: 02:36:17
Перевод: Одноголосый закадровый
Перевод субтитров: larisa_k
Озвучка: Nastia
Cубтитры: Русские (на песни)
Оригинальная аудиодорожка: хинди--Режиссер: Тапи Чанакья / Tapi Chanakya--В ролях: Вахида Рехман, Санджив Кумар, Судеш Кумар, Давид Абрахам, Ракеш Рошан, Канчан, Мехмуд, Аруна Ирани, Манорама, Мак Мохан, Сундер, Рандхир, Джагдиш Радж, Хелен, Онкар, Индумати, Кумудини Шанкар--Описание: Это история простого и честного парня Дипака. Он работает таксистом и живет со своей младшей сестрой Лакшми. Дипак приводит в дом жену, добрую и заботливую девушку по имени Кришна. Он принимает ее младшего брата Раму как родного. Их семья очень счастлива. Дипак договаривается о браке Лакшми с Шанкаром, доктором, сыном богатого и уважаемого ювелира. Но во время смотрин выясняется что Лакшми беременна. Брак расстраивается. Отцом ребенка, которого ждет Лакшми, оказывается шурин Дипака, Раму. В гневе Дипак прогоняет его из дома и Раму попадает под машину. После этого жизнь счастливой семьи рушится прямо на глазах. Лакшми уходит из дома. Кришна умирает во время родов и Дипак остается один с маленьким сыном на руках...--Благодарность:
larisa_k, за перевод субтитров
Nastia, за озвучку фильма-Рип и сведение звука: pca1962--Сэмпл: http://multi-up.com/985099
Исходник: DVD9 (без перевода)
Качество видео: DVDRip
Формат видео: AVI
Видео: XviD, 624x480, 23.97 fps, 1370 kbps
Аудио: AC3, 48 kHz, 2.0 (stereo), 192 kbps (русский)
Аудио 2: AC3, 48 kHz, 5.1 (6 ch), 320 kbps (хинди)
Формат субтитров: softsub (SRT)-
-
MediaInfo
=== Общие ===
Полное имя : Hram.razuma.1971.DVDRip.XviD.pca1962.avi
Формат : AVI
Описание формата : Audio Video Interleave
Профиль формата : OpenDML
Размер файла : 2.07 Гб
Длительность : 2ч 36мин
Общий битрейт : 1 900 кбит/сек
Название фильма : Man.Mandir.1971
Director : pca1962
Жанр / стиль : Melodrama
Програмное обеспечение : VirtualDubMod 1.5.10.2 (build 2540/release)
Original source form/Name : Movie
=== Видео ===
ID (Идентификатор) : 0
Формат : MPEG-4 Visual
Профиль формата : Advanced Simple@L5
Параметр 'BVOP' : 1
Параметр 'QPel' : Нет
Параметр 'GMC' : No warppoints
Параметр 'Matrix' : Default (H.263)
Идентификатор кодека : XVID
Подпись кодека : XviD
Длительность : 2ч 36мин
Битрейт : 1370 кбит/сек
Ширина кадра : 624 пикселей
Высота кадра : 480 пикселей
Соотношение сторон : 1.300
Частота кадров : 23.976 кадров/сек
Цветовое пространство : YUV
Субдискретизация насыщенности : 4:2:0
Глубина (разрядность) : 8 bits
Тип развертки : Прогрессивная
Режим сжатия : С потерями
Бит/(пиксель*кадр) : 0.191
Размер потока : 1.50 Гб (72%)
Кодирующая библиотека : XviD 73
=== Аудио 1 ===
ID (Идентификатор) : 1
Формат : AC-3
Описание формата : Audio Coding 3
Mode extension : CM (complete main)
Идентификатор кодека : 2000
Длительность : 2ч 36мин
Тип битрейта : Постоянный
Битрейт : 192 кбит/сек
Канал(ы) : 2 каналов
Расположение каналов : Front: L R
Частота дискретизации : 48.0 кГц
Глубина (разрядность) : 16 bits
Режим сжатия : С потерями
Размер потока : 215 Мб (10%)
Расположение потока : Split accross interleaves
Период чередования : 42 мс (1.00 video frame)
Предварительная загрузка : 500 мс
=== Аудио 2 ===
ID (Идентификатор) : 2
Формат : AC-3
Описание формата : Audio Coding 3
Mode extension : CM (complete main)
Идентификатор кодека : 2000
Длительность : 2ч 36мин
Тип битрейта : Постоянный
Битрейт : 320 кбит/сек
Канал(ы) : 6 каналов
Расположение каналов : Front: L C R, Side: L R, LFE
Частота дискретизации : 48.0 кГц
Глубина (разрядность) : 16 bits
Режим сжатия : С потерями
Размер потока : 358 Мб (17%)
Расположение потока : Split accross interleaves
Период чередования : 42 мс (1.00 video frame)
Предварительная загрузка : 500 мс

-
-Скриншот c названием фильма Скриншоты
Скачать

Скачать торрент! Храм разума / Man mandir (Тапи Чанакья / Tapi Chanakya) [1971, Индия, Драма, семейный, DVDRip] VO (Nastia) + original + Sub Rus

Как скачивать? · Что такое торрент? · Рейтинг и ограничения

Сайт не распространяет и не хранит электронные версии произведений, а лишь предоставляет доступ к создаваемому пользователями каталогу ссылок на торрент-файлы, которые содержат только списки хеш-сумм

[Профиль] [ЛС]
Показать сообщения:    
Ответить на тему

Текущее время: Сегодня 06:39

Часовой пояс: GMT + 4



Вы не можете начинать темы
Вы не можете отвечать на сообщения
Вы не можете редактировать свои сообщения
Вы не можете удалять свои сообщения
Вы не можете голосовать в опросах
Вы не можете прикреплять файлы к сообщениям
Вы не можете скачивать файлы