Слепой боксер / Blind Boxer (Чён Сэм / Cheung Sam) [1972, Гонконг, боевые искусства, VHSRip] VO (Виктор Береговых)

Ответить на тему
 
Автор Сообщение

user ®

Стаж: 11 лет

Сообщений: 15151

Пост Пост: #1 от 09-Июл-2014 21:10

[Цитировать]

Слепой боксер / Blind Boxer
Страна: Гонконг
Жанр: боевые искусства
Год выпуска: 1972
Продолжительность: 01:23:48
Перевод: Одноголосый закадровый (Виктор Береговых)
Cубтитры: нет
Режиссер: Чён Сэм / Cheung Sam
В ролях: Джейсон Пай Пяо, Тони Лю, Ингрид Ху, Чан Нань, Као Юань, Ён Вэй, Ким Ван Кук
Описание: Молодой парень по имени Фон Мун мечтает выйти в ринг и стать чемпионом,но его отец,слепой мастер кунг-фу не позволяет ему, мотивируя это тем,что боями управляют бандиты и все давно расписано наперед.Когда погибает очередной претендент, Фон Мун не выдерживает и бросает вызов чемпиону - японцу по прозвищу Горилла.Бандитам не удается договориться с решительно настроенным парнем и они решают подстраховаться, сыпят ему в лицо какой то порошок и Фон Мун практически полностью теряет зрение,но все равно не сдается.Слепой отец Фон Муна готовит слепого сына к поединку и Фон Мун выходит в ринг...(В.Береговых)
Сэмпл: https://www.sendspace.com/file/2brtp3
Качество видео: VHSRip
Формат видео: AVI
Видео: XviD, 720x400 (16:9), 25.000 fps, 2290 kbps avg, 0.302 bit/pixel
Аудио: AC3, 48.0 KHz, 192 Kbps, 2 channels
Релиз форума Tavernaclub
MediaInfo
General
Complete name : C:\Слепой боксер\Слепой боксер.avi
Format : AVI
Format/Info : Audio Video Interleave
File size : 1.46 GiB
Duration : 1h 23mn
Overall bit rate : 2 489 Kbps
Writing application : VirtualDubMod 1.5.4.1 (build 2178/release)
Writing library : VirtualDubMod build 2178/release
Video
ID : 0
Format : MPEG-4 Visual
Format profile : AdvancedSimple@L5
Format settings, BVOP : Yes
Format settings, QPel : No
Format settings, GMC : No warppoints
Format settings, Matrix : Custom
Codec ID : XVID
Codec ID/Hint : XviD
Duration : 1h 23mn
Bit rate : 2 290 Kbps
Width : 720 pixels
Height : 400 pixels
Display aspect ratio : 16:9
Frame rate : 25.000 fps
Resolution : 24 bits
Colorimetry : 4:2:0
Scan type : Progressive
Bits/(Pixel*Frame) : 0.318
Stream size : 1.34 GiB (92%)
Writing library : XviD 1.2.0.dev47 (UTC 2006-11-01)
Audio
ID : 1
Format : AC-3
Format/Info : Audio Coding 3
Codec ID : 2000
Duration : 1h 23mn
Bit rate mode : Constant
Bit rate : 192 Kbps
Channel(s) : 2 channels
Channel positions : L R
Sampling rate : 48.0 KHz
Stream size : 115 MiB (8%)
Alignment : Split accross interleaves
Interleave, duration : 96 ms (2.40 video frames)
Interleave, preload duration : 96 ms
Language : Russian
Скриншот c названием фильма Скриншоты
Скачать

Скачать торрент! Слепой боксер / Blind Boxer (Чён Сэм / Cheung Sam) [1972, Гонконг, боевые искусства, VHSRip] VO (Виктор Береговых)

Как скачивать? · Что такое торрент? · Рейтинг и ограничения

Сайт не распространяет и не хранит электронные версии произведений, а лишь предоставляет доступ к создаваемому пользователями каталогу ссылок на торрент-файлы, которые содержат только списки хеш-сумм

[Профиль] [ЛС]
Показать сообщения:    
Ответить на тему

Текущее время: Сегодня 12:59

Часовой пояс: GMT + 4



Вы не можете начинать темы
Вы не можете отвечать на сообщения
Вы не можете редактировать свои сообщения
Вы не можете удалять свои сообщения
Вы не можете голосовать в опросах
Вы не можете прикреплять файлы к сообщениям
Вы не можете скачивать файлы