Сильнее смерти / Убить с интригой / To Kill With Intrigue / Jian hua yan yu Jiang Nan (Ло Вей / Lo Wei) [1977, Гонконг, Китай, боевик, драма, HDRip] MVO [СТС]

Ответить на тему
 
Автор Сообщение

user ®

Стаж: 11 лет

Сообщений: 15151

Пост Пост: #1 от 09-Июл-2014 21:10

[Цитировать]

Сильнее смерти / Убить с интригой / To Kill With Intrigue / Jian hua yan yu Jiang Nan- -Страна: Гонконг, Китай
Жанр: боевик, драма
Год выпуска: 1977
Продолжительность: 01:26:28-Перевод: Профессиональный (многоголосый закадровый) [СТС]-Cубтитры: нет
Оригинальная аудиодорожка: нет
Режиссер: Ло Вей / Lo Wei
В ролях: Джеки Чан, Хуи Лу Чен, Чинг Хсиа Чианг, Сюй Фэн, Вэнь Таи Ли, Чи Ма, Иэ Ланг Шен, Хань Тинг, Лин Танг, Куо Ванг...
Описание: Женщина, решив отомстить семье человека, который изуродовал ее лицо, пощадила лишь юношу Хсило. Между ними возникает любовь. Но однажды Хсило внезапно исчезает, узнав, что его близкий друг на самом деле является главой клана "Смертельный дождь". Бывшие друзья встречаются в смертельной схватке.
Релиз от -
Сэмпл: http://multi-up.com/985249
Качество видео: HDTVRip
Формат видео: AVI
Видео: MPEG-4 Visual at 2219 Кбит/сек; 704 x 288 (2.444) at 25.000 fps
Аудио: AC-3 at 192 Кбит/сек; 2 канала, 48,0 КГц
Автор -
MediaInfo
Общее
Полное имя : D:\Фильмы\Азиатские\Убить с интригой\To Kill With Intrigue.1977.HDTVRip.1400MB. rip by [Assassin's Credd].avi
Формат : AVI
Формат/Информация : Audio Video Interleave
Размер файла : 1,46 Гбайт
Продолжительность : 1 ч. 26 м.
Общий поток : 2421 Кбит/сек
Программа кодирования : VirtualDubMod 1.5.10.3 | www.virtualdub-fr.org || (build 2550/release)
Библиотека кодирования : VirtualDubMod build 2550/release
Видео
Идентификатор : 0
Формат : MPEG-4 Visual
Профиль формата : Advanced Simple@L5
Параметр BVOP формата : 1
Параметр QPel формата : Нет
Параметр GMC формата : Без точки перехода
Параметр матрицы формата : Default (MPEG)
Идентификатор кодека : XVID
Идентификатор кодека/Подсказка : XviD
Продолжительность : 1 ч. 26 м.
Битрейт : 2219 Кбит/сек
Ширина : 704 пикселя
Высота : 288 пикселей
Соотношение сторон : 2,40:1
Частота кадров : 25,000 кадров/сек
Цветовое пространство : YUV
Субдискретизация насыщенности : 4:2:0
Битовая глубина : 8 бит
Тип развёртки : Прогрессивная
Метод сжатия : С потерями
Бит/(Пиксели*Кадры) : 0.438
Размер потока : 1,34 Гбайт (92%)
Библиотека кодирования : XviD 1.2.1 (UTC 2008-12-04)
Аудио
Идентификатор : 1
Формат : AC-3
Формат/Информация : Audio Coding 3
Расширение режима : CM (complete main)
Параметр Endianness формата : Big
Идентификатор кодека : 2000
Продолжительность : 1 ч. 26 м.
Вид битрейта : Постоянный
Битрейт : 192 Кбит/сек
Каналы : 2 канала
Расположение каналов : Front: L R
Частота : 48,0 КГц
Битовая глубина : 16 бит
Метод сжатия : С потерями
Размер потока : 119 Мбайт (8%)
Выравнивание : Разделение по промежуткам
Продолжительность промежутка : 40 мс. (1,00 видеокадр)
Время предзагрузки промежутка : 500 мс.
Скриншот c названием фильма Скриншоты
Скачать

Скачать торрент! Сильнее смерти / Убить с интригой / To Kill With Intrigue / Jian hua yan yu Jiang Nan (Ло Вей / Lo Wei) [1977, Гонконг, Китай, боевик, драма, HDRip] MVO [СТС]

Как скачивать? · Что такое торрент? · Рейтинг и ограничения

Сайт не распространяет и не хранит электронные версии произведений, а лишь предоставляет доступ к создаваемому пользователями каталогу ссылок на торрент-файлы, которые содержат только списки хеш-сумм

[Профиль] [ЛС]
Показать сообщения:    
Ответить на тему

Текущее время: Сегодня 15:32

Часовой пояс: GMT + 4



Вы не можете начинать темы
Вы не можете отвечать на сообщения
Вы не можете редактировать свои сообщения
Вы не можете удалять свои сообщения
Вы не можете голосовать в опросах
Вы не можете прикреплять файлы к сообщениям
Вы не можете скачивать файлы