Крыша / The Rooftop / Tian tai ai qing (Джей Чоу / Jay Chou) [2013, Тайвань, мелодрама, мюзикл, комедия, боевик, HDRip] DVO

Ответить на тему
 
Автор Сообщение

user ®

Стаж: 11 лет

Сообщений: 15151

Пост Пост: #1 от 08-Июл-2014 00:25

[Цитировать]

Крыша / The Rooftop / Tian tai ai qing
Страна: Тайвань
Жанр: мелодрама, мюзикл, комедия, боевик
Год выпуска: 2013
Продолжительность: 02:02:07-Перевод: Любительский (двухголосый закадровый)-Cубтитры: русские, вшитые [на песни]
Оригинальная аудиодорожка: нет
Режиссер: Джей Чоу / Jay Chou
В ролях: Джей Чоу, Сюэци Ван, Эрик Цан, Сюй Фань, Алан Куо, Кенни Би, Кен Лин...
Описание: На крыше, в выдуманном мире живет своей жизнью компания молодых людей. Живут они бедно, но беззаботно, много танцуют и поют. Но есть мир, где живут другие, у которых много денег и власти. Воск, лидер компании, давно влюблен в девушку с рекламного щита Старлинг. Случай сводит их на съемочной площадке. Между ними возникают романтические отношения. Но им мешают кинозвезда Вильям и городской бандит Рыжий Громила.
Релиз от -
Качество видео: HDRip
Формат видео: AVI
Видео: MPEG-4 Visual at 1260 Кбит/сек; 720 x 304 (2.368) at 24.000 fps
Аудио: AC-3 at 448 Кбит/сек; 6 каналов, 48,0 КГц
Автор -
MediaInfo
Общее
Полное имя : D:\Фильмы\Азиатские\Крыша\The Rooftop.2013.HDRip.XviD.1400MB. rip by [Assassin's Creed].avi
Формат : AVI
Формат/Информация : Audio Video Interleave
Размер файла : 1,47 Гбайт
Продолжительность : 2 ч. 2 м.
Общий поток : 1717 Кбит/сек
Программа кодирования : VirtualDubMod 1.5.10.3 | www.virtualdub-fr.org || (build 2550/release)
Библиотека кодирования : VirtualDubMod build 2550/release
Видео
Идентификатор : 0
Формат : MPEG-4 Visual
Профиль формата : Advanced Simple@L5
Параметр BVOP формата : 1
Параметр QPel формата : Нет
Параметр GMC формата : Без точки перехода
Параметр матрицы формата : Default (MPEG)
Идентификатор кодека : XVID
Идентификатор кодека/Подсказка : XviD
Продолжительность : 2 ч. 2 м.
Битрейт : 1260 Кбит/сек
Ширина : 720 пикселей
Высота : 304 пикселя
Соотношение сторон : 2,35:1
Частота кадров : 24,000 кадра/сек
Цветовое пространство : YUV
Субдискретизация насыщенности : 4:2:0
Битовая глубина : 8 бит
Тип развёртки : Прогрессивная
Метод сжатия : С потерями
Бит/(Пиксели*Кадры) : 0.240
Размер потока : 1,07 Гбайт (73%)
Библиотека кодирования : XviD 1.2.1 (UTC 2008-12-04)
Аудио
Идентификатор : 1
Формат : AC-3
Формат/Информация : Audio Coding 3
Расширение режима : CM (complete main)
Параметр Endianness формата : Big
Идентификатор кодека : 2000
Продолжительность : 2 ч. 2 м.
Вид битрейта : Постоянный
Битрейт : 448 Кбит/сек
Каналы : 6 каналов
Расположение каналов : Front: L C R, Side: L R, LFE
Частота : 48,0 КГц
Битовая глубина : 16 бит
Метод сжатия : С потерями
Размер потока : 391 Мбайт (26%)
Выравнивание : Разделение по промежуткам
Продолжительность промежутка : 42 мс. (1,00 видеокадр)
Время предзагрузки промежутка : 500 мс.
Скриншот c названием фильма Скриншоты
Скачать

Скачать торрент! Крыша / The Rooftop / Tian tai ai qing (Джей Чоу / Jay Chou) [2013, Тайвань, мелодрама, мюзикл, комедия, боевик, HDRip] DVO

Как скачивать? · Что такое торрент? · Рейтинг и ограничения

Сайт не распространяет и не хранит электронные версии произведений, а лишь предоставляет доступ к создаваемому пользователями каталогу ссылок на торрент-файлы, которые содержат только списки хеш-сумм

[Профиль] [ЛС]
Показать сообщения:    
Ответить на тему

Текущее время: Сегодня 19:19

Часовой пояс: GMT + 4



Вы не можете начинать темы
Вы не можете отвечать на сообщения
Вы не можете редактировать свои сообщения
Вы не можете удалять свои сообщения
Вы не можете голосовать в опросах
Вы не можете прикреплять файлы к сообщениям
Вы не можете скачивать файлы