Нарковойна / Drug War / Du zhan (Джонни То / Johnnie To) [2012, Гонконг, Китай, боевик, триллер, драма, криминал, HDRip] VO (den904)

Ответить на тему
 
Автор Сообщение

user ®

Стаж: 13 лет

Сообщений: 15071

Пост Пост: #1 от 07-Июл-2014 00:50

[Цитировать]

Нарковойна / Drug War / Du zhan
Страна: Гонконг, Китай
Студия: Hairun Movies & TV Group, Milky Way Image Company
Жанр: боевик, триллер, драма, криминал
Год выпуска: 2012
Продолжительность: 01:46:30
Перевод: Одноголосый закадровый den904
Cубтитры: нет
Режиссер: Джонни То / Johnnie To
В ролях: Луис Ку, Сунь Хунлэй, И Хуан, Мишель Йе, Сиу-Фай Чунг, Уоллес Чунг, Тао Гуо, Ка Танг Лам, Сует Лам, Гуанджи Ли
Описание: Капитан полиции Чжан Кто из отдела по борьбе с незаконным оборотом наркотиков, начинает допрос наркобарона по имени Тимми Чой после того как он был арестован. Чтобы избежать смертной казни, Чой обязуется раскрыть информацию о своих партнерах. Удастся ли ему запутать следствие и выйти сухим из воды или же ниточка оборвётся на середине…
Сэмпл: http://multi-up.com/984650
Тип релиза: HDRip (BDRip 720p)
Контейнер: AVI
Видео: XviD, 843 Kbps, 640 х 272 pixels, 24.000 fps
Аудио: MP3, 128 Kbps, 2 channels, 48.0 KHz

Награды:
Азиатская киноакадемия, 2013 год
Номинации (3):
Лучший фильм
Лучшая работа сценариста — «Xi Yu»
Лучший монтаж
MediaInfo
General
Complete name : D:\Drug.War.2012.HDRip.745Mb.avi
Format : AVI
Format/Info : Audio Video Interleave
File size : 746 MiB
Duration : 1h 46mn
Overall bit rate : 980 Kbps
Writing application : VirtualDubMod 1.5.10.3 | www.virtualdub-fr.org || (build 2550/release)
Writing library : VirtualDubMod build 2550/release
Video
ID : 0
Format : MPEG-4 Visual
Format profile : Advanced Simple@L5
Format settings, BVOP : Yes
Format settings, QPel : No
Format settings, GMC : No warppoints
Format settings, Matrix : Custom
Codec ID : XVID
Codec ID/Hint : XviD
Duration : 1h 46mn
Bit rate : 843 Kbps
Width : 640 pixels
Height : 272 pixels
Display aspect ratio : 2.35:1
Frame rate : 24.000 fps
Color space : YUV
Chroma subsampling : 4:2:0
Bit depth : 8 bits
Scan type : Progressive
Compression mode : Lossy
Bits/(Pixel*Frame) : 0.202
Stream size : 642 MiB (86%)
Writing library : XviD 73
Audio
ID : 1
Format : MPEG Audio
Format version : Version 1
Format profile : Layer 3
Codec ID : 55
Codec ID/Hint : MP3
Duration : 1h 46mn
Bit rate mode : Constant
Bit rate : 128 Kbps
Channel(s) : 2 channels
Sampling rate : 48.0 KHz
Compression mode : Lossy
Stream size : 97.5 MiB (13%)
Alignment : Aligned on interleaves
Interleave, duration : 42 ms (1.00 video frame)
Interleave, preload duration : 504 ms
Writing library : LAME3.99r
Encoding settings : -m s -V 4 -q 2 -lowpass 17 -b 128
Скриншоты
Скачать

Скачать торрент! Нарковойна / Drug War / Du zhan (Джонни То / Johnnie To) [2012, Гонконг, Китай, боевик, триллер, драма, криминал, HDRip] VO (den904)

Как скачивать? · Что такое торрент? · Рейтинг и ограничения

Сайт не распространяет и не хранит электронные версии произведений, а лишь предоставляет доступ к создаваемому пользователями каталогу ссылок на торрент-файлы, которые содержат только списки хеш-сумм

[Профиль] [ЛС]
Показать сообщения:    
Ответить на тему

Текущее время: Сегодня 16:46

Часовой пояс: GMT + 4



Вы не можете начинать темы
Вы не можете отвечать на сообщения
Вы не можете редактировать свои сообщения
Вы не можете удалять свои сообщения
Вы не можете голосовать в опросах
Вы не можете прикреплять файлы к сообщениям
Вы не можете скачивать файлы