Нарковойна / Du zhan (Джонни То / Johnnie To) [2012, Китай, Гонконг, боевик, триллер, драма, криминал, BDRip-AVC] VO (den904) + Original (Cantonese) + Subs (Rus, Eng)

Ответить на тему
 
Автор Сообщение

user ®

Стаж: 11 лет

Сообщений: 15151

Пост Пост: #1 от 06-Июл-2014 00:20

[Цитировать]

Нарковойна / Du zhan- Страна: Китай, Гонконг
Жанр: боевик, триллер, драма, криминал
Год выпуска: 2012
Продолжительность: 01:46:30-Перевод: Одноголосый закадровый den904 по переводу Skyworker
Оригинальная аудиодорожка: Cantonese
Cубтитры: Russian (full - Skyworker), English (full)
Навигация по главам: Присутствует - 20 глав-Режиссер: Джонни То / Johnnie To
В ролях: Луис Ку, Сунь Хунлэй, И Хуан, Мишель Йе, Сиу-Фай Чунг, Уоллес Чунг, Тао Гуо, Ка Танг Лам, Сует Лам, Гуанджи Ли-Описание
Капитан полиции Чжан Кто из отдела по борьбе с незаконным оборотом наркотиков, начинает допрос наркобарона по имени Тимми Чой после того как он был арестован. Чтобы избежать смертной казни, Чой обязуется раскрыть информацию о своих партнерах. Удастся ли ему запутать следствие и выйти сухим из воды или же ниточка оборвётся на середине…
-
Download sample-Качество видео: BDRip-AVC |
Формат видео: AVI-Видео: 1120x476 (2.35:1), 24.000 fps, x264 ~2933 kbps avg, 0.223 bit/pixel
Аудио №1: 48.0 kHz, AC3 Dolby Digital, 3/2 (L,C,R,l,r) + LFE ch, ~448 kbps | Одноголосый закадровый den904 по переводу Skyworker
Аудио №2: 48.0 kHz, AC3 Dolby Digital, 3/2 (L,C,R,l,r) + LFE ch, ~448 kbps | Cantonese-

MediaInfo
General
Unique ID : 254613164838170281628413620917011782649 (0xBF8CB63B2076B378A62480FFAF189BF9)
Complete name : D:\Фильмы\Рипы\Du zhan.2012.BDRip-AVC.Rus.Orig.Subs.eFK.mkv
Format : Matroska
Format version : Version 4 / Version 2
File size : 2.85 GiB
Duration : 1h 46mn
Overall bit rate : 3 831 Kbps
Encoded date : UTC 2014-07-05 19:29:37
Writing application : mkvmerge v6.1.0 ('Old Devil') built on Mar 4 2013 09:10:42
Writing library : libebml v1.3.0 + libmatroska v1.4.0
Attachment : Yes
Video
ID : 1
Format : AVC
Format/Info : Advanced Video Codec
Format profile : High@L4.1
Format settings, CABAC : Yes
Format settings, ReFrames : 15 frames
Codec ID : V_MPEG4/ISO/AVC
Duration : 1h 46mn
Bit rate : 2 859 Kbps
Width : 1 120 pixels
Height : 476 pixels
Display aspect ratio : 2.35:1
Frame rate mode : Constant
Frame rate : 24.000 fps
Color space : YUV
Chroma subsampling : 4:2:0
Bit depth : 8 bits
Scan type : Progressive
Bits/(Pixel*Frame) : 0.223
Stream size : 2.13 GiB (75%)
Title : eFK
Writing library : x264 core 142 r2431kMod ac76440
Encoding settings : cabac=1 / ref=15 / deblock=1:-3:-3 / analyse=0x3:0x133 / me=umh / subme=11 / psy=1 / fade_compensate=0.00 / psy_rd=1.10:0.05 / mixed_ref=1 / me_range=48 / chroma_me=1 / trellis=2 / 8x8dct=1 / cqm=0 / deadzone=21,11 / fast_pskip=1 / chroma_qp_offset=-3 / threads=8 / lookahead_threads=2 / sliced_threads=0 / nr=0 / decimate=1 / interlaced=0 / bluray_compat=0 / constrained_intra=0 / fgo=0 / bframes=14 / b_pyramid=2 / b_adapt=2 / b_bias=0 / direct=3 / weightb=1 / open_gop=0 / weightp=2 / keyint=240 / keyint_min=24 / scenecut=40 / intra_refresh=0 / rc_lookahead=60 / rc=crf / mbtree=0 / crf=17.3000 / qcomp=0.60 / qpmin=0 / qpmax=69 / qpstep=4 / vbv_maxrate=50000 / vbv_bufsize=62500 / crf_max=0.0 / nal_hrd=none / filler=0 / ip_ratio=1.40 / pb_ratio=1.30 / aq=3:0.60
Default : Yes
Forced : No
Color primaries : BT.709
Transfer characteristics : BT.709
Matrix coefficients : BT.709
Audio #1
ID : 2
Format : AC-3
Format/Info : Audio Coding 3
Mode extension : CM (complete main)
Format settings, Endianness : Big
Codec ID : A_AC3
Duration : 1h 46mn
Bit rate mode : Constant
Bit rate : 448 Kbps
Channel count : 6 channels
Channel positions : Front: L C R, Side: L R, LFE
Sampling rate : 48.0 KHz
Bit depth : 16 bits
Compression mode : Lossy
Stream size : 341 MiB (12%)
Title : VO - den904
Language : Russian
Default : Yes
Forced : No
Audio #2
ID : 3
Format : AC-3
Format/Info : Audio Coding 3
Mode extension : CM (complete main)
Format settings, Endianness : Big
Codec ID : A_AC3
Duration : 1h 46mn
Bit rate mode : Constant
Bit rate : 448 Kbps
Channel count : 6 channels
Channel positions : Front: L C R, Side: L R, LFE
Sampling rate : 48.0 KHz
Bit depth : 16 bits
Compression mode : Lossy
Stream size : 341 MiB (12%)
Title : Cantonese
Language : Chinese
Default : No
Forced : No
Text #1
ID : 4
Format : UTF-8
Codec ID : S_TEXT/UTF8
Codec ID/Info : UTF-8 Plain Text
Title : full - Skyworker
Language : Russian
Default : No
Forced : No
Text #2
ID : 5
Format : UTF-8
Codec ID : S_TEXT/UTF8
Codec ID/Info : UTF-8 Plain Text
Title : full
Language : English
Default : No
Forced : No
Menu
00:00:00.000 : :Chapter 01
00:06:57.000 : :Chapter 02
00:10:02.333 : :Chapter 03
00:14:01.541 : :Chapter 04
00:19:23.500 : :Chapter 05
00:25:38.333 : :Chapter 06
00:31:08.541 : :Chapter 07
00:36:40.208 : :Chapter 08
00:42:35.541 : :Chapter 09
00:47:40.375 : :Chapter 10
00:53:42.166 : :Chapter 11
00:57:52.291 : :Chapter 12
01:04:06.791 : :Chapter 13
01:10:32.125 : :Chapter 14
01:16:18.833 : :Chapter 15
01:19:31.750 : :Chapter 16
01:24:57.666 : :Chapter 17
01:30:50.041 : :Chapter 18
01:36:12.250 : :Chapter 19
01:42:22.833 : :Chapter 20
x264 log
x264 [info]: frame I:1206 Avg QP:15.00 size: 71587 PSNR Mean Y:48.42 U:51.12 V:51.60 Avg:49.17 Global:48.72
x264 [info]: frame P:35099 Avg QP:16.34 size: 29854 PSNR Mean Y:47.55 U:50.13 V:50.54 Avg:48.26 Global:47.29
x264 [info]: frame B:117053 Avg QP:19.13 size: 10323 PSNR Mean Y:46.05 U:48.76 V:49.31 Avg:46.80 Global:46.13
x264 [info]: consecutive B-frames: 3.1% 4.1% 9.3% 15.0% 13.8% 50.0% 2.6% 0.5% 0.6% 0.1% 0.1% 0.2% 0.1% 0.2% 0.3%
x264 [info]: mb I I16..4: 5.5% 79.4% 15.2%
x264 [info]: mb P I16..4: 0.8% 11.0% 1.2% P16..4: 27.1% 35.9% 13.5% 1.7% 0.1% skip: 8.6%
x264 [info]: mb B I16..4: 0.1% 0.6% 0.1% B16..8: 38.7% 24.9% 4.1% direct: 6.2% skip:25.3% L0:42.6% L1:45.9% BI:11.5%
x264 [info]: 8x8 transform intra:82.8% inter:62.9%
x264 [info]: direct mvs spatial:100.0% temporal:0.0%
x264 [info]: coded y,uvDC,uvAC intra: 91.4% 91.4% 80.9% inter: 28.5% 34.6% 13.7%
x264 [info]: i16 v,h,dc,p: 25% 24% 4% 46%
x264 [info]: i8 v,h,dc,ddl,ddr,vr,hd,vl,hu: 7% 7% 7% 10% 15% 13% 14% 12% 14%
x264 [info]: i4 v,h,dc,ddl,ddr,vr,hd,vl,hu: 9% 13% 6% 9% 14% 13% 14% 10% 13%
x264 [info]: i8c dc,h,v,p: 47% 23% 15% 15%
x264 [info]: Weighted P-Frames: Y:5.3% UV:4.0%
x264 [info]: ref P L0: 43.4% 8.9% 17.8% 6.7% 5.8% 3.8% 3.4% 1.8% 1.8% 1.4% 1.4% 1.0% 1.0% 0.8% 0.9% 0.1%
x264 [info]: ref B L0: 74.3% 11.1% 4.9% 2.6% 1.7% 1.5% 1.1% 0.7% 0.6% 0.5% 0.4% 0.4% 0.2% 0.1%
x264 [info]: ref B L1: 94.0% 6.0%
x264 [info]: SSIM Mean Y:0.9822450 (17.507db)
x264 [info]: PSNR Mean Y:46.414 U:49.093 V:49.613 Avg:47.152 Global:46.388 kb/s:2932.72
x264 [total]: encoded 153358 frames, 9.17 fps, 2932.72 kb/s
Screenshots Comparison
Source

Encode
Скачать

Скачать торрент! Нарковойна / Du zhan (Джонни То / Johnnie To) [2012, Китай, Гонконг, боевик, триллер, драма, криминал, BDRip-AVC] VO (den904) + Original (Cantonese) + Subs (Rus, Eng)

Как скачивать? · Что такое торрент? · Рейтинг и ограничения

Сайт не распространяет и не хранит электронные версии произведений, а лишь предоставляет доступ к создаваемому пользователями каталогу ссылок на торрент-файлы, которые содержат только списки хеш-сумм

[Профиль] [ЛС]
Показать сообщения:    
Ответить на тему

Текущее время: Сегодня 10:01

Часовой пояс: GMT + 4



Вы не можете начинать темы
Вы не можете отвечать на сообщения
Вы не можете редактировать свои сообщения
Вы не можете удалять свои сообщения
Вы не можете голосовать в опросах
Вы не можете прикреплять файлы к сообщениям
Вы не можете скачивать файлы