Добро пожаловать в Шаматаун / Welcome to Shamatown (Ли Вэй Жань / Li Weiran) [2010, Китай, комедия, DVDRip] VO (Виктор Береговых)

Ответить на тему
 
Автор Сообщение

user ®

Стаж: 13 лет

Сообщений: 15071

Пост Пост: #1 от 04-Июл-2014 21:30

[Цитировать]

Добро пожаловать в Шаматаун / Welcome to Shamatown
Страна: Китай
Жанр: комедия
Год выпуска: 2010
Продолжительность: 01:43:49
Перевод: Рэйдзи и Rainmaker
Озвучивание: Виктор Береговых
Cубтитры: нет
Режиссер: Ли Вэй Жань / Li Weiran
В ролях: Сунь Хун Лэй, Линь Чи Лин, Гань Вэй, Ли Ли Чунь, Си Юань, Бао Бэй Эр
Описание: Мэр города Шаматаун полон решимости вывести свой город из небытия.Горожане выращивали страусов,после помидоры,но потерпели неудачу.Теперь мэр задумал заняться туризмом.Он бросает слух о том,что в 1931 г. бандит Ху припрятал в Шаматауне сокровища императорской гробницы,надеясь привлечь этим туристов,однако в городе появляются вовсе не туристы,а бандиты...(В.Береговых)
Сэмпл: https://www.sendspace.com/file/v04ddt
Качество видео: DVDRip
Формат видео: AVI
Видео: XviD, 720x304 (2.35:1), 23.976 fps, 1812 kbps avg, 0.345 bit/pixel
Аудио: AC3, 48.0 KHz, 192 Kbps, 2 channels (русский, одноголосый закадровый)
MediaInfo
General
Complete name : C:\Добро пожаловать в Шаматаун\Добро пожаловать в Шаматаун.avi
Format : AVI
Format/Info : Audio Video Interleave
File size : 1.46 GiB
Duration : 1h 43mn
Overall bit rate : 2 011 Kbps
Writing application : VirtualDubMod 1.5.4.1 (build 2178/release)
Writing library : VirtualDubMod build 2178/release
Video
ID : 0
Format : MPEG-4 Visual
Format profile : AdvancedSimple@L5
Format settings, BVOP : No
Format settings, QPel : No
Format settings, GMC : No warppoints
Format settings, Matrix : Custom
Codec ID : XVID
Codec ID/Hint : XviD
Duration : 1h 43mn
Bit rate : 1 812 Kbps
Width : 720 pixels
Height : 304 pixels
Display aspect ratio : 2.35:1
Frame rate : 23.976 fps
Resolution : 24 bits
Colorimetry : 4:2:0
Scan type : Progressive
Bits/(Pixel*Frame) : 0.345
Stream size : 1.31 GiB (90%)
Writing library : XviD 1.2.0.dev47 (UTC 2006-11-01)
Audio
ID : 1
Format : AC-3
Format/Info : Audio Coding 3
Codec ID : 2000
Duration : 1h 43mn
Bit rate mode : Constant
Bit rate : 192 Kbps
Channel(s) : 2 channels
Channel positions : L R
Sampling rate : 48.0 KHz
Stream size : 143 MiB (10%)
Alignment : Split accross interleaves
Interleave, duration : 96 ms (2.30 video frames)
Interleave, preload duration : 96 ms
Language : Russian
Скриншот c названием фильма Скриншоты
Скачать

Скачать торрент! Добро пожаловать в Шаматаун / Welcome to Shamatown (Ли Вэй Жань / Li Weiran) [2010, Китай, комедия, DVDRip] VO (Виктор Береговых)

Как скачивать? · Что такое торрент? · Рейтинг и ограничения

Сайт не распространяет и не хранит электронные версии произведений, а лишь предоставляет доступ к создаваемому пользователями каталогу ссылок на торрент-файлы, которые содержат только списки хеш-сумм

[Профиль] [ЛС]
Показать сообщения:    
Ответить на тему

Текущее время: Сегодня 20:52

Часовой пояс: GMT + 4



Вы не можете начинать темы
Вы не можете отвечать на сообщения
Вы не можете редактировать свои сообщения
Вы не можете удалять свои сообщения
Вы не можете голосовать в опросах
Вы не можете прикреплять файлы к сообщениям
Вы не можете скачивать файлы