Мгновение любви 2 / A Moment of Romance 2 / Tian ruo you qing 2 : Zhi tian chang di jiu (Бенни Чан / Benny Chan) [1993, Гонконг, боевик, драма, DVDRip] VO (Виктор Береговых)

Ответить на тему
 
Автор Сообщение

user ®

Стаж: 11 лет

Сообщений: 15151

Пост Пост: #1 от 03-Июл-2014 20:55

[Цитировать]

Мгновение любви 2 / A Moment of Romance 2 / Tian ruo you qing 2 : Zhi tian chang di jiu
Страна: Гонконг
Жанр: боевик, драма
Год выпуска: 1993
Продолжительность: 01:28:06
Перевод: Одноголосый закадровый (Виктор Береговых)
Cубтитры: нет
Режиссер: Бенни Чан / Benny Chan
В ролях: Аарон Квок, Жаклин У, Энтони Вон, Чён Тат Мин, Уильям Хо, Квань Хой Сань, Ли Сю Кей, Пол Чунь
Описание: Селия приехала в Гонконг из материкового Китая, чтобы заработать денег на выкуп брата из тюрьмы и единственный способ сделать это в сжатые сроки – стать проституткой. Однако «карьера» Селии не задалась сразу же – ее первого босса убивают, а на нее сваливают всю вину за убийство. Помочь девушке берется Фу, но что может сделать обычный парень, пусть даже отлично гоняющий на мотоцикле, против триад? (Акира)
Сэмпл: https://www.sendspace.com/file/wzev40
Качество видео: DVDRip
Формат видео: AVI
Видео: XviD, 720x416 (16:9), 23.976 fps, 2171 kbps avg, 0.302 bit/pixel
Аудио: AC3, 48.0 KHz, 192 Kbps, 2 channels
Релиз форума Tavernaclub
MediaInfo
General
Complete name : C:\Мгновение любви 2\Мгновение любви 2.avi
Format : AVI
Format/Info : Audio Video Interleave
File size : 1.46 GiB
Duration : 1h 28mn
Overall bit rate : 2 370 Kbps
Writing application : VirtualDubMod 1.5.4.1 (build 2178/release)
Writing library : VirtualDubMod build 2178/release
Video
ID : 0
Format : MPEG-4 Visual
Format profile : AdvancedSimple@L5
Format settings, BVOP : Yes
Format settings, QPel : No
Format settings, GMC : No warppoints
Format settings, Matrix : Custom
Codec ID : XVID
Codec ID/Hint : XviD
Duration : 1h 28mn
Bit rate : 2 171 Kbps
Width : 720 pixels
Height : 416 pixels
Display aspect ratio : 16:9
Frame rate : 23.976 fps
Resolution : 24 bits
Colorimetry : 4:2:0
Scan type : Progressive
Bits/(Pixel*Frame) : 0.302
Stream size : 1.34 GiB (92%)
Writing library : XviD 1.2.0.dev47 (UTC 2006-11-01)
Audio
ID : 1
Format : AC-3
Format/Info : Audio Coding 3
Codec ID : 2000
Duration : 1h 28mn
Bit rate mode : Constant
Bit rate : 192 Kbps
Channel(s) : 2 channels
Channel positions : L R
Sampling rate : 48.0 KHz
Stream size : 121 MiB (8%)
Alignment : Split accross interleaves
Interleave, duration : 96 ms (2.30 video frames)
Interleave, preload duration : 96 ms
Language : Russian
Скриншот c названием фильма Скриншоты
Скачать

Скачать торрент! Мгновение любви 2 / A Moment of Romance 2 / Tian ruo you qing 2 : Zhi tian chang di jiu (Бенни Чан / Benny Chan) [1993, Гонконг, боевик, драма, DVDRip] VO (Виктор Береговых)

Как скачивать? · Что такое торрент? · Рейтинг и ограничения

Сайт не распространяет и не хранит электронные версии произведений, а лишь предоставляет доступ к создаваемому пользователями каталогу ссылок на торрент-файлы, которые содержат только списки хеш-сумм

[Профиль] [ЛС]
Показать сообщения:    
Ответить на тему

Текущее время: Сегодня 23:05

Часовой пояс: GMT + 4



Вы не можете начинать темы
Вы не можете отвечать на сообщения
Вы не можете редактировать свои сообщения
Вы не можете удалять свои сообщения
Вы не можете голосовать в опросах
Вы не можете прикреплять файлы к сообщениям
Вы не можете скачивать файлы