Мечты из пластилина (Максим Мехеда) [2012, Россия, Украина, мелодрама, HDTVRip 720p]

Ответить на тему
 
Автор Сообщение

user ®

Стаж: 7 лет 7 месяцев

Сообщений: 20008

Пост Пост: #1 от 03-Июл-2014 17:45

[Цитировать]

Мечты из пластилина
Выпущено: Россия, Украина, Star Media
Жанр: мелодрама
Год выпуска: 2012
Продолжительность: 01:27:03
Субтитры: нет
Режиссер: Максим Мехеда
В ролях: Игорь Петренко, Екатерина Климова, Алексей Комашко, Поля Полякова, Александр Мохов, Наталия Васько, Александр Кобзарь, Александра Киреева
Описание: Куда приводят детские мечты? И стоит ли быть зависимым от иллюзий? Двенадцатилетняя Оксана влюблена в сотрудника своего отца, двадцатипятилетнего красавца Бориса. Борис женится на своей сверстнице Вике. Оксана по-детски драматично переживает это. Она обещает себе, что во что бы то ни стало завоюет Бориса. По совету мамы девочка лепит свою мечту из пластилина. Спустя почти 10 лет она горько пожалеет о своем желании. Чтобы распознать истинные чувства, девушке придется пережить крах семейного бизнеса, потерю самого близкого и любящего человека. Лишь избавившись от навязчивой идеи детства, Оксана обретет счастье.

Автор рипа / записи: fanatus
Исходник: Запись с телеканала РОССИЯ HD
Качество: HDTVRip 720p
Формат: MKV
Видео кодек: H.264
Аудио кодек: AC3
Видео: MPEG-4 AVC, 6000 kbps , 1280x720 (16:9), 25.000 fps, 0.260 bit/pixel
Аудио: AC3, 2 ch, 48 kHz, 192 kbps
MediaInfo
General
Unique ID : 216377656448896994320575913466391378483 (0xA2C8D21EF95B31D9A2D3C2E237DF3A33)
Complete name : E:\Mechty_iz_plastilina.2012.x264.HDTVRip.720p.fanatus.mkv
Format : Matroska
Format version : Version 2
File size : 3.77 GiB
Duration : 1h 27mn
Overall bit rate : 6 193 Kbps
Movie name : Mechty iz plastilina (2012) - fanatus
Encoded date : UTC 2014-07-02 20:20:14
Writing application : mkvmerge v3.4.0 ('Rapunzel') сборка от May 15 2010 09:38:20
Writing library : libebml v0.8.0 + libmatroska v0.9.0
Video
ID : 1
Format : AVC
Format/Info : Advanced Video Codec
Format profile : High@L4.1
Format settings, CABAC : Yes
Format settings, ReFrames : 9 frames
Codec ID : V_MPEG4/ISO/AVC
Duration : 1h 27mn
Bit rate : 6 000 Kbps
Width : 1 280 pixels
Height : 720 pixels
Display aspect ratio : 16:9
Frame rate : 25.000 fps
Color space : YUV
Chroma subsampling : 4:2:0
Bit depth : 8 bits
Scan type : Progressive
Bits/(Pixel*Frame) : 0.260
Stream size : 3.57 GiB (95%)
Title : Mechty iz plastilina (2012) HDTVRip_720p
Writing library : x264 core 142 r2431 ac76440
Encoding settings : cabac=1 / ref=9 / deblock=1:-3:-3 / analyse=0x3:0x113 / me=umh / subme=11 / psy=1 / psy_rd=1.00:0.00 / mixed_ref=1 / me_range=48 / chroma_me=1 / trellis=2 / 8x8dct=1 / cqm=0 / deadzone=21,11 / fast_pskip=0 / chroma_qp_offset=-2 / threads=16 / lookahead_threads=4 / sliced_threads=0 / nr=0 / decimate=0 / interlaced=0 / bluray_compat=0 / constrained_intra=0 / bframes=10 / b_pyramid=2 / b_adapt=2 / b_bias=0 / direct=3 / weightb=1 / open_gop=0 / weightp=2 / keyint=250 / keyint_min=25 / scenecut=40 / intra_refresh=0 / rc=2pass / mbtree=0 / bitrate=6000 / ratetol=1.0 / qcomp=0.65 / qpmin=0 / qpmax=69 / qpstep=4 / cplxblur=20.0 / qblur=0.5 / ip_ratio=1.40 / pb_ratio=1.30 / aq=1:0.90
Language : Russian
Default : Yes
Forced : No
Audio
ID : 2
Format : AC-3
Format/Info : Audio Coding 3
Mode extension : CM (complete main)
Format settings, Endianness : Big
Codec ID : A_AC3
Duration : 1h 27mn
Bit rate mode : Constant
Bit rate : 192 Kbps
Channel(s) : 2 channels
Channel positions : Front: L R
Sampling rate : 48.0 KHz
Bit depth : 16 bits
Compression mode : Lossy
Stream size : 120 MiB (3%)
Language : Russian
Default : Yes
Forced : No
Скриншот c названием фильма Скриншоты
Скачать

Скачать торрент!

Как скачивать? · Что такое торрент? · Рейтинг и ограничения

Сайт не распространяет и не хранит электронные версии произведений, а лишь предоставляет доступ к создаваемому пользователями каталогу ссылок на торрент-файлы, которые содержат только списки хеш-сумм

[Профиль] [ЛС]
Показать сообщения:    
Ответить на тему

Текущее время: Сегодня 10:43

Часовой пояс: GMT + 4



Вы не можете начинать темы
Вы не можете отвечать на сообщения
Вы не можете редактировать свои сообщения
Вы не можете удалять свои сообщения
Вы не можете голосовать в опросах
Вы не можете прикреплять файлы к сообщениям
Вы не можете скачивать файлы