Мерантау / Merantau (Гарет Эванс / Gareth Evans) [2009, Индонезия, боевик, драма, BDRip-AVC] DVO + 2xVO (Zamez, Anubus) + Original (Eng) + Subs (Rus, Eng)

Ответить на тему
 
Автор Сообщение

user ®

Стаж: 11 лет

Сообщений: 15151

Пост Пост: #1 от 02-Июл-2014 23:40

[Цитировать]

Мерантау / Merantau«Every journey must begin with one small step»- Страна: Индонезия
Жанр: боевик, драма
Год выпуска: 2009
Продолжительность: 01:51:47-Перевод №1: Любительский (двухголосый закадровый)
Перевод №2: Одноголосый закадровый - Zamez
Перевод №3: Одноголосый закадровый - Anubus - отдельно в раздаче
Оригинальная аудиодорога: English
Cубтитры: Russian (full - slavasaur), English (full)
Навигация по главам: отсутствует-Режиссер: Гарет Эванс / Gareth Evans
В ролях: Ико Увайс, Сиска Джессика, Кристин Хаким, Мэдс Коудал, Юсуф Аулиа, Лорен Басон, Алекс Аббад, Донни Аламся-Описание
В посёлке Минангкабау, что в Западной Суматре, юноша по имени Юда, изучающий стиль Харимау Силат, находится на финальной стадии подготовки к «Мерантау». Смысл этого древнего обряда заключается в том, что молодые люди при достижении определённого возраста должны забыть обо всех удобствах идиллического посёлка и добиться успеха в городе Джакарта.
После ряда неудач, бездомный и лишенный всяких надежд на будущее, Юда случайно спасает сироту Астри от банды европейцев, похитителей людей, которую возглавляют психопат Рэтгер и его помощник Люк.
Раненый в схватке Рэтгер жаждет кровавого возмездия и возврата «живого» товара. Знакомство Юды с городом начинается с «крещения огнем» — ему необходимо скрываться от погони вместе с Астри и ее младшим братом Адитом, а все сутенёры и бандиты, населяющие улицы ночного города, следуют за ними по пятам.
Осознав, что бегство бесполезно, у Юды не остается другого выхода — он должен сразиться с врагами в захватывающем и насыщенном адреналином финале.
-
Download sample-Качество видео: BDRip-AVC |
Формат видео: MKV-Видео: 1 152x648 (16:9), 23.976 fps, x264 ~3720 kbps avg, 0.203 bit/pixel
Аудио №1: 48.0 kHz, AC3 Dolby Digital, 2/0 (L,R) ch, ~192 kbps | Любительский (двухголосый закадровый)
Аудио №2: 48.0 kHz, AC3 Dolby Digital, 3/2 (L,C,R,l,r) + LFE ch, ~448 kbps | Одноголосый закадровый - Zamez
Аудио №3: 48.0 kHz, AC3 Dolby Digital, 2/0 (L,R) ch, ~192 kbps | Одноголосый закадровый - Anubus - отдельно в раздаче
Аудио №4: 48.0 kHz, AC3 Dolby Digital, 3/2 (L,C,R,l,r) + LFE ch, ~448 kbps | English-

MediaInfo
General
Unique ID : 253066196409799722831856168701332255997 (0xBE62C6CC7DA2F29DAEC92FD5329374FD)
Complete name : D:\Фильмы\Рипы\Merantau.2009.BDRip-AVC.eFK\Merantau.2009.BDRip-AVC.eFK.mkv
Format : Matroska
Format version : Version 4 / Version 2
File size : 3.76 GiB
Duration : 1h 52mn
Overall bit rate : 4 810 Kbps
Movie name : Merantau (2009) - Release for
Encoded date : UTC 2014-07-02 12:15:35
Writing application : mkvmerge v6.1.0 ('Old Devil') built on Mar 4 2013 09:10:42
Writing library : libebml v1.3.0 + libmatroska v1.4.0
Attachment : Yes
Video
ID : 1
Format : AVC
Format/Info : Advanced Video Codec
Format profile : High@L4.1
Format settings, CABAC : Yes
Format settings, ReFrames : 15 frames
Codec ID : V_MPEG4/ISO/AVC
Duration : 1h 52mn
Bit rate : 3 626 Kbps
Width : 1 152 pixels
Height : 648 pixels
Display aspect ratio : 16:9
Frame rate mode : Constant
Frame rate : 23.976 fps
Color space : YUV
Chroma subsampling : 4:2:0
Bit depth : 8 bits
Scan type : Progressive
Bits/(Pixel*Frame) : 0.203
Stream size : 2.84 GiB (75%)
Title : eFK
Writing library : x264 core 142 r2431kMod ac76440
Encoding settings : cabac=1 / ref=15 / deblock=1:-3:-3 / analyse=0x3:0x133 / me=umh / subme=11 / psy=1 / fade_compensate=0.00 / psy_rd=0.90:0.10 / mixed_ref=1 / me_range=48 / chroma_me=1 / trellis=2 / 8x8dct=1 / cqm=0 / deadzone=21,11 / fast_pskip=1 / chroma_qp_offset=-3 / threads=8 / lookahead_threads=2 / sliced_threads=0 / nr=0 / decimate=1 / interlaced=0 / bluray_compat=0 / constrained_intra=0 / fgo=0 / bframes=16 / b_pyramid=2 / b_adapt=2 / b_bias=0 / direct=3 / weightb=1 / open_gop=0 / weightp=2 / keyint=250 / keyint_min=23 / scenecut=40 / intra_refresh=0 / rc_lookahead=60 / rc=crf / mbtree=0 / crf=18.1000 / qcomp=0.65 / qpmin=0 / qpmax=69 / qpstep=4 / vbv_maxrate=50000 / vbv_bufsize=62500 / crf_max=0.0 / nal_hrd=none / filler=0 / ip_ratio=1.40 / pb_ratio=1.30 / aq=3:0.75
Default : Yes
Forced : No
Audio #1
ID : 2
Format : AC-3
Format/Info : Audio Coding 3
Mode extension : CM (complete main)
Format settings, Endianness : Big
Codec ID : A_AC3
Duration : 1h 52mn
Bit rate mode : Constant
Bit rate : 192 Kbps
Channel count : 2 channels
Channel positions : Front: L R
Sampling rate : 48.0 KHz
Bit depth : 16 bits
Compression mode : Lossy
Stream size : 154 MiB (4%)
Title : DVO
Language : Russian
Default : Yes
Forced : No
Audio #2
ID : 3
Format : AC-3
Format/Info : Audio Coding 3
Mode extension : CM (complete main)
Format settings, Endianness : Big
Codec ID : A_AC3
Duration : 1h 52mn
Bit rate mode : Constant
Bit rate : 448 Kbps
Channel count : 6 channels
Channel positions : Front: L C R, Side: L R, LFE
Sampling rate : 48.0 KHz
Bit depth : 16 bits
Compression mode : Lossy
Stream size : 359 MiB (9%)
Title : VO - (Zamez)
Language : Russian
Default : No
Forced : No
Audio #3
ID : 4
Format : AC-3
Format/Info : Audio Coding 3
Mode extension : CM (complete main)
Format settings, Endianness : Big
Codec ID : A_AC3
Duration : 1h 52mn
Bit rate mode : Constant
Bit rate : 448 Kbps
Channel count : 6 channels
Channel positions : Front: L C R, Side: L R, LFE
Sampling rate : 48.0 KHz
Bit depth : 16 bits
Compression mode : Lossy
Stream size : 359 MiB (9%)
Language : English
Default : No
Forced : No
Text #1
ID : 5
Format : UTF-8
Codec ID : S_TEXT/UTF8
Codec ID/Info : UTF-8 Plain Text
Language : Russian
Default : No
Forced : No
Text #2
ID : 6
Format : UTF-8
Codec ID : S_TEXT/UTF8
Codec ID/Info : UTF-8 Plain Text
Language : English
Default : No
Forced : No
x264 log
x264 [info]: frame I:866 Avg QP:13.92 size: 82654 PSNR Mean Y:49.90 U:52.52 V:52.03 Avg:50.54 Global:49.82
x264 [info]: frame P:33334 Avg QP:15.89 size: 38362 PSNR Mean Y:48.44 U:50.98 V:50.42 Avg:49.05 Global:48.38
x264 [info]: frame B:126934 Avg QP:18.17 size: 13981 PSNR Mean Y:47.78 U:50.62 V:49.87 Avg:48.42 Global:47.50
x264 [info]: consecutive B-frames: 1.5% 2.7% 7.8% 14.5% 12.7% 51.2% 3.8% 0.7% 1.0% 1.8% 0.6% 0.5% 0.3% 0.3% 0.2% 0.1% 0.3%
x264 [info]: mb I I16..4: 11.0% 78.0% 10.9%
x264 [info]: mb P I16..4: 2.1% 20.0% 1.4% P16..4: 28.7% 32.2% 9.3% 0.8% 0.1% skip: 5.3%
x264 [info]: mb B I16..4: 0.3% 1.9% 0.1% B16..8: 34.0% 21.3% 3.1% direct: 7.7% skip:31.5% L0:46.1% L1:43.0% BI:10.9%
x264 [info]: 8x8 transform intra:83.9% inter:64.0%
x264 [info]: direct mvs spatial:100.0% temporal:0.0%
x264 [info]: coded y,uvDC,uvAC intra: 84.1% 94.2% 87.4% inter: 23.7% 40.3% 15.1%
x264 [info]: i16 v,h,dc,p: 35% 9% 6% 50%
x264 [info]: i8 v,h,dc,ddl,ddr,vr,hd,vl,hu: 10% 7% 9% 9% 13% 12% 13% 12% 14%
x264 [info]: i4 v,h,dc,ddl,ddr,vr,hd,vl,hu: 12% 7% 7% 9% 15% 14% 14% 10% 12%
x264 [info]: i8c dc,h,v,p: 45% 20% 18% 18%
x264 [info]: Weighted P-Frames: Y:3.5% UV:2.4%
x264 [info]: ref P L0: 40.2% 6.4% 19.0% 7.0% 6.4% 4.2% 4.1% 2.1% 2.2% 1.6% 1.7% 1.3% 1.4% 1.2% 1.3% 0.1%
x264 [info]: ref B L0: 67.5% 12.5% 5.9% 3.3% 2.4% 2.1% 1.6% 1.1% 1.0% 0.8% 0.7% 0.7% 0.4% 0.2%
x264 [info]: ref B L1: 92.8% 7.2%
x264 [info]: SSIM Mean Y:0.9865763 (18.721db)
x264 [info]: PSNR Mean Y:47.930 U:50.705 V:49.998 Avg:48.566 Global:47.680 kb/s:3719.95
x264 [total]: encoded 161134 frames, 7.81 fps, 3719.95 kb/s
Screenshots Comparison
Source

Encode
Скачать

Скачать торрент! Мерантау / Merantau (Гарет Эванс / Gareth Evans) [2009, Индонезия, боевик, драма, BDRip-AVC] DVO + 2xVO (Zamez, Anubus) + Original (Eng) + Subs (Rus, Eng)

Как скачивать? · Что такое торрент? · Рейтинг и ограничения

Сайт не распространяет и не хранит электронные версии произведений, а лишь предоставляет доступ к создаваемому пользователями каталогу ссылок на торрент-файлы, которые содержат только списки хеш-сумм

[Профиль] [ЛС]
Показать сообщения:    
Ответить на тему

Текущее время: Сегодня 16:27

Часовой пояс: GMT + 4



Вы не можете начинать темы
Вы не можете отвечать на сообщения
Вы не можете редактировать свои сообщения
Вы не можете удалять свои сообщения
Вы не можете голосовать в опросах
Вы не можете прикреплять файлы к сообщениям
Вы не можете скачивать файлы