Я подарю тебе любовь (Игорь Кечаев) [2014, Россия, мелодрама, HDTVRip 720p]

Ответить на тему
 
Автор Сообщение

user ®

Стаж: 7 лет 7 месяцев

Сообщений: 20008

Пост Пост: #1 от 01-Июл-2014 17:45

[Цитировать]

Я подарю тебе любовь
Выпущено: Россия, компания «ВайТ Медиа»
Жанр: мелодрама
Год выпуска: 2014
Продолжительность: 01:35:12
Субтитры: нет
Режиссер: Игорь Кечаев
В ролях: Елена Дудина, Александр Пашков, Тамара Сёмина, Олеся Бойко, Глафира Козулина, Иван Бровин, Степан Бекетов, Виктор Выбриенко, Светлана Письмиченко, Екатерина Толубеева
Описание: Борис призван на срочную службу в "горячую точку". Дома его ждет невеста Лариса, но вскоре приходит письмо, в котором сообщается, что он погиб. Бориса привозят хоронить на родину в цинковом гробу. Друг Бориса Николай, влюбленный в Ларису, начинает настойчиво ухаживать за ней и, наконец, делает предложение. Девушка принимает предложение, осознавая, что не любит Николая. Накануне их свадьбы неожиданно возвращается Борис. Их чувства друг к другу не остыли, но узнав, что возлюбленная собирается замуж, молодой человек снова исчезает…

Автор рипа / записи: fanatus
Исходник: Запись с телеканала РОССИЯ HD
Качество: HDTVRip 720p
Формат: MKV
Видео кодек: H.264
Аудио кодек: AC3
Видео: MPEG-4 AVC, 4226 kbps , 1280x720 (16:9), 25.000 fps, 0.183 bit/pixel
Аудио: AC3, 2 ch, 48 kHz, 192 kbps
MediaInfo
General
Unique ID : 245405087848228461948394795520186859276 (0xB89F4CFBEEC72FF9BFA5802A7C173F0C)
Complete name : E:\Ja_podarju_tebe_ljubov.2014.x264.HDTVRip.720p.fanatus.mkv
Format : Matroska
Format version : Version 2
File size : 2.78 GiB
Duration : 1h 30mn
Overall bit rate : 4 419 Kbps
Movie name : Ja podarju tebe ljubov (2014) - fanatus
Encoded date : UTC 2014-06-29 21:04:46
Writing application : mkvmerge v3.4.0 ('Rapunzel') сборка от May 15 2010 09:38:20
Writing library : libebml v0.8.0 + libmatroska v0.9.0
Video
ID : 1
Format : AVC
Format/Info : Advanced Video Codec
Format profile : High@L4.1
Format settings, CABAC : Yes
Format settings, ReFrames : 9 frames
Codec ID : V_MPEG4/ISO/AVC
Duration : 1h 30mn
Bit rate : 4 226 Kbps
Width : 1 280 pixels
Height : 720 pixels
Display aspect ratio : 16:9
Frame rate : 25.000 fps
Color space : YUV
Chroma subsampling : 4:2:0
Bit depth : 8 bits
Scan type : Progressive
Bits/(Pixel*Frame) : 0.183
Stream size : 2.60 GiB (94%)
Title : Ja podarju tebe ljubov (2014) HDTVRip_720p
Writing library : x264 core 142 r2431 ac76440
Encoding settings : cabac=1 / ref=9 / deblock=1:-3:-3 / analyse=0x3:0x113 / me=umh / subme=11 / psy=1 / psy_rd=1.05:0.05 / mixed_ref=1 / me_range=48 / chroma_me=1 / trellis=2 / 8x8dct=1 / cqm=0 / deadzone=21,11 / fast_pskip=0 / chroma_qp_offset=-3 / threads=16 / lookahead_threads=4 / sliced_threads=0 / nr=0 / decimate=0 / interlaced=0 / bluray_compat=0 / constrained_intra=0 / bframes=10 / b_pyramid=2 / b_adapt=2 / b_bias=0 / direct=3 / weightb=1 / open_gop=0 / weightp=2 / keyint=250 / keyint_min=25 / scenecut=40 / intra_refresh=0 / rc=2pass / mbtree=0 / bitrate=4226 / ratetol=1.0 / qcomp=0.65 / qpmin=0 / qpmax=69 / qpstep=4 / cplxblur=20.0 / qblur=0.5 / ip_ratio=1.40 / pb_ratio=1.30 / aq=1:0.90
Language : Russian
Default : Yes
Forced : No
Audio
ID : 2
Format : AC-3
Format/Info : Audio Coding 3
Mode extension : CM (complete main)
Format settings, Endianness : Big
Codec ID : A_AC3
Duration : 1h 30mn
Bit rate mode : Constant
Bit rate : 192 Kbps
Channel(s) : 2 channels
Channel positions : Front: L R
Sampling rate : 48.0 KHz
Bit depth : 16 bits
Compression mode : Lossy
Stream size : 124 MiB (4%)
Language : Russian
Default : Yes
Forced : No
Скриншот c названием фильма Скриншоты Сравнение
[url=http://***/forum/viewtopic.php?t=4772680]http://***/forum/viewtopic.php?t=4772680[/url]
http://screenshotcomparison.com/comparison/81388
Скачать

Скачать торрент!

Как скачивать? · Что такое торрент? · Рейтинг и ограничения

Сайт не распространяет и не хранит электронные версии произведений, а лишь предоставляет доступ к создаваемому пользователями каталогу ссылок на торрент-файлы, которые содержат только списки хеш-сумм

[Профиль] [ЛС]
Показать сообщения:    
Ответить на тему

Текущее время: Сегодня 10:44

Часовой пояс: GMT + 4



Вы не можете начинать темы
Вы не можете отвечать на сообщения
Вы не можете редактировать свои сообщения
Вы не можете удалять свои сообщения
Вы не можете голосовать в опросах
Вы не можете прикреплять файлы к сообщениям
Вы не можете скачивать файлы