Трио Динамит / Динамитная тройка / The Dynamite Trio / The Mantis Kung-Fu Master in Long Step Mantis / Long hu xuan feng (Дэнни Чен / Danny Cheng) [1982, Гонконг, боевые искусства, VHSRip] AVO (Сергей Кузнецов)

Ответить на тему
 
Автор Сообщение

user ®

Стаж: 11 лет

Сообщений: 15151

Пост Пост: #1 от 30-Июн-2014 15:05

[Цитировать]

Трио Динамит / Динамитная тройка / The Dynamite Trio / The Mantis Kung-Fu Master in Long Step Mantis / Long hu xuan feng
Страна: Гонконг
Жанр: боевые искусства
Год выпуска: 1982
Продолжительность: 01:28:32
Перевод: Авторский (одноголосый закадровый) Сергей Кузнецов
Cубтитры: нет
Режиссер: Дэнни Чен / Danny Cheng
В ролях: Марк Лун, Лун Фэй, Ци Дэган, Чуань Юань, Вэй Су, Кам Винчён, Юй Сунчжао, Тан Цзяцюань, Гу Баомин, Чён Чункуай, Чен Сайкан, Ма Жуфэн
Описание: Один из злодеев нападает на двух братьев хранителей старой книги, руководства по одному из стилей кунфу, чтобы овладеть ей, брат спасая другого гибнет, дабы другой смог отомстить. Злодей находит сотоварища, чтобы скорей найти старую книгу.
Благодарность: За исходник благодарность выражается шурик 555.
Сэмпл: http://multi-up.com/983479
Качество видео: VHSRip
Формат видео: AVI
Видео: 640x480 (1.33:1), 25 fps, XviD build 50 ~2071 kbps avg, 0.27 bit/pixel
Аудио: 48 kHz, MPEG Layer 3, 2 ch, ~128.00 kbps avg
MediaInfo
Format : AVI
Format/Info : Audio Video Interleave
File size : 1,37 Гбайт
Duration : 1 ч. 28 м.
Overall bit rate : 2209 Кбит/сек
Writing application : VirtualDubMod 1.5.10.3 | www.virtualdub-fr.org || (build 2550/release)
Writing library : VirtualDubMod build 2550/release
Видео
ID : 0
Format : MPEG-4 Visual
Format profile : Advanced Simple@L5
Format settings, BVOP : 2
Format settings, QPel : Нет
Format settings, GMC : Без точки перехода
Format settings, Matrix : Default (MPEG)
Codec ID : XVID
Codec ID/Hint : XviD
Duration : 1 ч. 28 м.
Bit rate : 2071 Кбит/сек
Width : 640 пикселей
Height : 480 пикселей
Display aspect ratio : 4:3
Frame rate : 25,000 кадров/сек
Color space : YUV
Chroma subsampling : 4:2:0
Bit depth : 8 бит
Scan type : Прогрессивная
Compression mode : С потерями
Bits/(Pixel*Frame) : 0.270
Stream size : 1,28 Гбайт (94%)
Writing library : XviD 1.2.1 (UTC 2008-12-04)
Аудио
ID : 1
Format : MPEG Audio
Format version : Version 1
Format profile : Layer 3
Codec ID : 55
Codec ID/Hint : MP3
Duration : 1 ч. 28 м.
Bit rate mode : Постоянный
Bit rate : 128 Кбит/сек
Channel(s) : 2 канала
Sampling rate : 48,0 КГц
Compression mode : С потерями
Stream size : 81,1 Мбайт (6%)
Alignment : Соединение по промежуткам
Interleave, duration : 40 мс. (1,00 видеокадр)
Interleave, preload duration : 504 мс.
Writing library : LAME3.99r
Encoding settings : -m s -V 4 -q 2 -lowpass 17 -b 128
Скриншот c названием фильма Скриншоты
Скачать

Скачать торрент! Трио Динамит / Динамитная тройка / The Dynamite Trio / The Mantis Kung-Fu Master in Long Step Mantis / Long hu xuan feng (Дэнни Чен / Danny Cheng) [1982, Гонконг, боевые искусства, VHSRip] AVO (Сергей Кузнецов)

Как скачивать? · Что такое торрент? · Рейтинг и ограничения

Сайт не распространяет и не хранит электронные версии произведений, а лишь предоставляет доступ к создаваемому пользователями каталогу ссылок на торрент-файлы, которые содержат только списки хеш-сумм

[Профиль] [ЛС]
Показать сообщения:    
Ответить на тему

Текущее время: Сегодня 17:39

Часовой пояс: GMT + 4



Вы не можете начинать темы
Вы не можете отвечать на сообщения
Вы не можете редактировать свои сообщения
Вы не можете удалять свои сообщения
Вы не можете голосовать в опросах
Вы не можете прикреплять файлы к сообщениям
Вы не можете скачивать файлы