2 штата / 2 States (Абхишек Варман / Abhishek Varman) [2014, Индия, мелодрама, комедия, DVDRip] Sub Rus

Ответить на тему
 
Автор Сообщение

user ®

Стаж: 12 лет

Сообщений: 15092

Пост Пост: #1 от 30-Июн-2014 11:55

[Цитировать]

2 штата / 2 States
Страна: Индия
Жанр: мелодрама, комедия
Год выпуска: 2014
Продолжительность: 02:29:25
Перевод: Субтитры
Cубтитры: русские
Оригинальная аудиодорожка: хинди
Режиссер: Абхишек Варман / Abhishek Varman
В ролях: Арджун Капур,Алия Бхатт,Ронит Рой,Амрита Сингх,Реватхи,Шив Кумар Субраманьям
Описание: Криш и Ананья любят друг друга. Все вроде хорошо, казалось пора играть свадьбу и жить счастливо.Но не все так просто.Ведь Ананья тамилка,а Арджун пенджабец,а их семьи довольно консервативных взглядов.Теперь Кришу и Ананье придется потрудиться,чтобы их родители дали согласие на брак и приняли друг друга как родню.
Сэмпл: http://multi-up.com/983171
Качество видео: DVDRip
Формат видео: AVI
Видео: MPEG-4, XviD, 720x304, 23.976 fps, 937 Kbps
Аудио: AC-3, 48.0 KHz, 6 ch, 448 Kbps,
Формат субтитров: softsub (SRT)
MediaInfo
Format : AVI
Format/Info : Audio Video Interleave
File size : 1.45 GiB
Duration : 2h 29mn
Overall bit rate : 1 392 Kbps
Video
ID : 0
Format : MPEG-4 Visual
Format profile : Advanced Simple@L5
Format settings, BVOP : 2
Format settings, QPel : No
Format settings, GMC : No warppoints
Format settings, Matrix : Default (H.263)
Codec ID : XVID
Codec ID/Hint : XviD
Duration : 2h 29mn
Bit rate : 937 Kbps
Width : 720 pixels
Height : 304 pixels
Display aspect ratio : 2.35:1
Frame rate : 23.976 fps
Color space : YUV
Chroma subsampling : 4:2:0
Bit depth : 8 bits
Scan type : Progressive
Compression mode : Lossy
Bits/(Pixel*Frame) : 0.178
Stream size : 1 001 MiB (67%)
Writing library : XviD 1.2.1 (UTC 2008-12-04)
Audio
ID : 1
Format : AC-3
Format/Info : Audio Coding 3
Mode extension : CM (complete main)
Format settings, Endianness : Big
Codec ID : 2000
Duration : 2h 29mn
Bit rate mode : Constant
Bit rate : 448 Kbps
Channel(s) : 6 channels
Channel positions : Front: L C R, Side: L R, LFE
Sampling rate : 48.0 KHz
Bit depth : 16 bits
Compression mode : Lossy
Stream size : 479 MiB (32%)
Alignment : Aligned on interleaves
Interleave, duration : 64 ms (1.53 video frames)
Interleave, preload duration : 192 ms
Title : VTS_02_1 T80 3_2ch 448Kbps DELAY -49ms
Скриншот c названием фильма Скриншоты Пример субтитров
821
00:51:34,763 --> 00:51:35,935
Здравствуйте,сэр!
822
00:51:35,997 --> 00:51:38,739
Это учитель музыки Радхи.
823
00:51:39,030 --> 00:51:44,480
Радха занята на кухне.Готовит для тебя.Что поделать...
824
00:51:45,430 --> 00:51:46,704
Воды?
825
00:51:46,897 --> 00:51:48,843
Что? Нет.Все нормально.
826
00:51:49,130 --> 00:51:50,541
Да..Вообще-то...
827
00:51:50,630 --> 00:51:51,700
Так да или нет?
828
00:51:52,122 --> 00:51:53,829
Да..да...
829
00:51:54,088 --> 00:51:55,465
Если не трудно...
830
00:51:55,689 --> 00:51:58,329
Теперь когда ты уже здесь,какая ж вода трудность?
831
00:51:58,389 --> 00:51:59,925
Радха! Воды!
832
00:51:59,989 --> 00:52:01,662
Да,иду!
833
00:52:08,922 --> 00:52:09,957
Здравствуйте,тетушка.
834
00:52:10,022 --> 00:52:11,160
Здравствуй.
835
00:52:12,089 --> 00:52:13,159
Спасибо.
836
00:52:13,222 --> 00:52:16,294
Извините,что нагрянул вот так..
837
00:52:16,355 --> 00:52:17,698
Это все Ананья...
838
00:52:17,755 --> 00:52:21,225
Никогда не спросит,прежде чем пригласить кого-то.Присаживайся.
839
00:52:21,289 --> 00:52:22,324
Да...
840
00:52:25,922 --> 00:52:27,333
Я совершенно не могу понять...
841
00:52:27,389 --> 00:52:31,360
Почему ваш банк послал северянина в Ченнай?
842
00:52:31,689 --> 00:52:33,726
Почему? Чертовы глупцы!
843
00:52:34,922 --> 00:52:37,095
Дядя,а Ананья дома?
Скачать

Скачать торрент! 2 штата / 2 States (Абхишек Варман / Abhishek Varman) [2014, Индия, мелодрама, комедия, DVDRip] Sub Rus

Как скачивать? · Что такое торрент? · Рейтинг и ограничения

Сайт не распространяет и не хранит электронные версии произведений, а лишь предоставляет доступ к создаваемому пользователями каталогу ссылок на торрент-файлы, которые содержат только списки хеш-сумм

[Профиль] [ЛС]
Показать сообщения:    
Ответить на тему

Текущее время: Сегодня 12:07

Часовой пояс: GMT + 4



Вы не можете начинать темы
Вы не можете отвечать на сообщения
Вы не можете редактировать свои сообщения
Вы не можете удалять свои сообщения
Вы не можете голосовать в опросах
Вы не можете прикреплять файлы к сообщениям
Вы не можете скачивать файлы