Безумный секс / Crazy Sex / Lim Fa Yau Cho (Ли Хань Сян / Li Han Hsiang) [1976, Гонконг, комедия, эротика, DVDRip] VO (Виктор Береговых)

Ответить на тему
 
Автор Сообщение

user ®

Стаж: 11 лет

Сообщений: 15151

Пост Пост: #1 от 29-Июн-2014 23:50

[Цитировать]

Безумный секс / Crazy Sex / Lim Fa Yau Cho
Страна: Гонконг
Жанр: комедия, эротика
Год выпуска: 1976
Продолжительность: 01:26:04
Перевод: Одноголосый закадровый (Виктор Береговых)
Cубтитры: нет
Режиссер: Ли Хань Сян / Li Han Hsiang
В ролях: Лили Ли, Чань Шэнь, Ху Чин, Ширли Юй, Вон Хап, Ван Лай, Ли Кван
Описание: Фильм состоит из двух историй.В первой рассказывается о группе молодых людей, которые ловко подставили семейную пару,подловив обоих супругов на измене и вынудив их заплатить кругленькую сумму во избежание расторжения брачного договора по которому супруг-изменщик не получает ничего.Во второй истории рассказывается об озабоченном муже и о попытках его жены избежать излишних сексуальных домоганий любвеобильного супруга.(В.Береговых)
Сэмпл: https://www.sendspace.com/file/wzfj4s
Качество видео: DVDRip
Формат видео: AVI
Видео: XviD, 720x320 (2.25:1), 29.970 fps, 2226 kbps avg, 0.322 bit/pixel
Аудио: AC3, 48.0 KHz, 192 Kbps, 2 channels
Релиз форума Tavernaclub
MediaInfo
General
Complete name : C:\Безумный секс\Безумный секс.avi
Format : AVI
Format/Info : Audio Video Interleave
File size : 1.46 GiB
Duration : 1h 26mn
Overall bit rate : 2 426 Kbps
Writing application : VirtualDubMod 1.5.4.1 (build 2178/release)
Writing library : VirtualDubMod build 2178/release
Video
ID : 0
Format : MPEG-4 Visual
Format profile : AdvancedSimple@L5
Format settings, BVOP : No
Format settings, QPel : No
Format settings, GMC : No warppoints
Format settings, Matrix : Custom
Codec ID : XVID
Codec ID/Hint : XviD
Duration : 1h 26mn
Bit rate : 2 226 Kbps
Width : 720 pixels
Height : 320 pixels
Display aspect ratio : 2.25:1
Frame rate : 29.970 fps
Resolution : 24 bits
Colorimetry : 4:2:0
Scan type : Progressive
Bits/(Pixel*Frame) : 0.322
Stream size : 1.34 GiB (92%)
Writing library : XviD 1.2.0.dev47 (UTC 2006-11-01)
Audio
ID : 1
Format : AC-3
Format/Info : Audio Coding 3
Codec ID : 2000
Duration : 1h 26mn
Bit rate mode : Constant
Bit rate : 192 Kbps
Channel(s) : 2 channels
Channel positions : L R
Sampling rate : 48.0 KHz
Stream size : 118 MiB (8%)
Alignment : Split accross interleaves
Interleave, duration : 96 ms (2.88 video frames)
Interleave, preload duration : 96 ms
Language : Russian
Скриншот c названием фильма Скриншоты
Скачать

Скачать торрент! Безумный секс / Crazy Sex / Lim Fa Yau Cho (Ли Хань Сян / Li Han Hsiang) [1976, Гонконг, комедия, эротика, DVDRip] VO (Виктор Береговых)

Как скачивать? · Что такое торрент? · Рейтинг и ограничения

Сайт не распространяет и не хранит электронные версии произведений, а лишь предоставляет доступ к создаваемому пользователями каталогу ссылок на торрент-файлы, которые содержат только списки хеш-сумм

[Профиль] [ЛС]
Показать сообщения:    
Ответить на тему

Текущее время: Сегодня 17:45

Часовой пояс: GMT + 4



Вы не можете начинать темы
Вы не можете отвечать на сообщения
Вы не можете редактировать свои сообщения
Вы не можете удалять свои сообщения
Вы не можете голосовать в опросах
Вы не можете прикреплять файлы к сообщениям
Вы не можете скачивать файлы